Скачать через торрент Тайна королевы Анны, или Мушкетеры 30 лет спустя. 1-я серия Фильм бесплатно в хорошем качестве torrent

Скачивайте на UnionPeer.org фильмы через торрент без регистрации. Новинки кино в хорошем качестве через торрент. На UnionPeer.org можно скачать через торрент фильмы 2014 и 2015 годов. Самые новые фильмы.

Скачать торрент Тайна королевы Анны, или Мушкетеры 30 лет спустя. 1-я серия бесплатно через .torrent фильм мультфильм сериал

Если у вас наблюдаются проблемы со скриншотами, переходом по ссылками, скачиванием торрентов - проблемы в блокировщике рекламы AdBlock. #хорошегоДня!


Статистика раздачи
Размер:  1.7 GB   |    Зарегистрирован:  2 месяца 16 дней   |    .torrent скачан:  12 раз   |   
Раздают:  1  
   
Загрузка...
 
Автор Сообщение

Galfimbul

avatar Galfimbul


Тайна королевы Анны, или Мушкетеры 30 лет спустя. 1-я серия / Песни в исполнении И. Наджиева

Жанр: приключения
Год выпуска: 1993
Продолжительность: 01:16:07

Режиссёр: Георгий Юнгвальд-Хилькевич

В ролях: Михаил Боярский, Алиса Фрейндлих, Дмитрий Харатьян, Анатолий Равикович, Вениамин Смехов, Валентин Смирнитский, Игорь Старыгин, Владимир Лаптев, Арунас Сторпирстис, Андрей Соколов, Алексей Ясулович, Юрий Дубровин, Павел Винник, Екатерина Стриженова, Юри Ярвет, Анатолий Столбов, Яна Поплавская, Алла Будницкая...

Описание: Когда-то гасконец Д`Артаньян познакомился с тремя мушкетерами — Атосом, Портосом и Арамисом, и они стали неразлучными друзьями. Время идет. Прошло тридцать лет с тех времен…

По мотивам романа Александра Дюма "Виконт де Бражелон или Десять лет спустя". Ну о-о-о-очень по мотивам. <img class="smile" src="//static.t-ru.org/smiles/icon_lol.gif" alt="">

Доп. информация: Оцифровка VHS с записью эфира 1-го канала Останкино. Из личной коллекции.
Запись сделана в период с 1 апреля 1993 по 31 марта 1995, точнее уже не вспомню.
Оцифровка производилась с помощью сего девайса, который работает без участия компьютера (сам он+видеомагнитофон+флэшка) и не имеет никаких настроек кодирования. Все претензии к IconBITу.

Сэмпл: http://sendfile.su/1360522

Качество видео: TVRip-AVC
Формат видео: MP4

Видео: AVC, 720х576, 5:4, ,000 кадров/сек, 3000 Кбит/сек
Аудио: AAC, 48,0 КГц, 192 Кбит/сек, 2 канала (псевдостерео)
General
Complete name : K:\torrents\Мушкетеры 30 лет спустя. 1 серия\1-я серия.mp4
Format : MPEG-4
Format profile : Base Media
Codec ID : isom (isom/iso2/avc1/mp41)
File size : 1.70 GiB
Duration : 1 h 16 min
Overall bit rate : 3 196 kb/s
Writing application : Lavf57.25.100

Video
ID : 1
Format : AVC
Format/Info : Advanced Video Codec
Format profile : Baseline@L3
Format settings, CABAC : No
Format settings, RefFrames : 1 frame
Format settings, GOP : M=1, N=50
Codec ID : avc1
Codec ID/Info : Advanced Video Coding
Duration : 1 h 16 min
Bit rate : 3 000 kb/s
Width : 720 pixels
Height : 576 pixels
Display aspect ratio : 5:4
Frame rate mode : Constant
Frame rate : 25.000 FPS
Standard : PAL
Color space : YUV
Chroma subsampling : 4:2:0
Bit depth : 8 bits
Scan type : Progressive
Bits/(Pixel*Frame) : 0.289
Stream size : 1.60 GiB (94%)
Language : English

Audio
ID : 2
Format : AAC
Format/Info : Advanced Audio Codec
Format profile : LC
Codec ID : 40
Duration : 1 h 16 min
Bit rate mode : Constant
Bit rate : 192 kb/s
Channel(s) : 2 channels
Channel positions : Front: L R
Sampling rate : 48.0 kHz
Frame rate : 46.875 FPS (1024 SPF)
Compression mode : Lossy
Stream size : 103 MiB (6%)
Language : English
Default : Yes
Alternate group : 1


Трекер:  [ 08-Сен-2017 19:24 ]

  

Скачать .torrent

Размер .torrent файла 17 KB


Размер: 1.7 GB
Хэш (hash) релиза: c65ca991d18ec91e06771e3d07e3a90b7791d0fe
Подписка на обновления:

Еще никто не оставлял запись к записи скачать торрент Тайна королевы Анны, или Мушкетеры 30 лет спустя. 1-я серия . Будь первым!

!Обратная связь