Скачать через торрент Клуб любителей магии Mahou Tsukai Tai бесплатно Аниме Все серии на русском torrent

Если у вас наблюдаются проблемы со скриншотами, переходом по ссылками, скачиванием торрентов - проблемы в блокировщике рекламы AdBlock. #хорошегоДня!


Статистика раздачи
Размер:  3.21 GB   |    Зарегистрирован:  2 месяца 12 дней   |    .torrent скачан:  8 раз   |   
Раздают:  1  
   
Загрузка...
 
Автор Сообщение

Galfimbul

avatar Galfimbul


Клуб любителей магии / Mahou Tsukai Tai / Magic Users Club

Страна: Япония
Год выпуска: 1999
Жанр: комедия, романтика, мистика
Тип: TV
Продолжительность: 13 серий x ~25 минут

Режиссер: Сато Дзюнъити
Студия: Madhouse, Triangle Staff
Перевод: субтитры, Kon и Константин
Хардсаб: нет

Описание: Это продолжение оригинального «Клуба Любителей Магии». На это раз знаменитому отраду юных магиков предстоят еще более захватывающие приключения и более многочисленные опасные враги. Посчастливится им встретить воплощение самой магии. Кто же останется в живых, вы узнаете только посмотрев сериал до конца. Нас ждет еще больше кавая, фансервиса и юмора.

Список эпизодов:

Sai, The Magic Club, and the Cherry Tree
Nanaka, The Cake, and A Dangerous Evening
Aburatsubo-senpai, The Fresh Face, and The Parent
Sae, The Bathroom, and Facing the Door
Akane-chan, the Hiccup, and the Suspicious Relationship
Takakura-senpai, the Servant, and the Secret Date
Sae, the Tomato, and the Picture Writing Dance
Alice, the Tousetsu, and the Rice Cookie Source
The Long-Sleeved Kimono, Shortbread, and the Petal Era
Snow, The Foal, and the Kiss
Akane-chan, the Mirror, and the Year Edn Bargain
The Octopus, Inatsuma, and Mickey-senpai
Sae's Magic, Sae's Feelings, Always and Forever

Качество: DVDRip
Формат видео: MKV
Видео: 8 bits, XVID 640x480 ≈1000 kbps 23,976 fps
Аудио 1: Оригинальный японский. OGG Stereo ≈160 kbps 48000 Hz
Аудио 2: Английский дубляж. OGG Stereo ≈160 kbps 48000 Hz
Аудио 3: Русский войсовер (helen267). OGG Stereo ≈128 kbps 48000 Hz
Субтитры: srt, русские и aнглийские
GeneralUnique ID : 206314208062066288961091151315916137816 (0x9B36ABCEE8A4CB2D9F8A08211261A558)Complete name : ***\Mahou_Tsukai_Tai_TV_01_[FD650435].mkvFormat : MatroskaFormat version : Version 1File size : 258 MiBDuration : 24mn 20sOverall bit rate mode : VariableOverall bit rate : 1 480 KbpsEncoded date : UTC 2007-11-17 22:56:20Writing application : mkvmerge v2.1.0 ('Another Place To Fall') built on Aug 19 2007 13:40:07Writing library : libebml v0.7.7 + libmatroska v0.8.1

VideoID : 1Format : MPEG-4 VisualFormat profile : Advanced Simple@L5Format settings, BVOP : 2Format settings, QPel : NoFormat settings, GMC : 3 warppointsFormat settings, Matrix : Default (H.263)Muxing mode : Packed bitstreamCodec ID : V_MS/VFW/FOURCC / XVIDCodec ID/Hint : XviDDuration : 24mn 20sBit rate : 970 KbpsWidth : 640 pixelsHeight : 480 pixelsDisplay aspect ratio : 4:3Frame rate mode : ConstantFrame rate : 23.976 fpsColor space : YUVChroma subsampling : 4:2:0Bit depth : 8 bitsScan type : ProgressiveCompression mode : LossyBits/(Pixel*Frame) : 0.132Stream size : 169 MiB (66%)Title : Sae, Magic Club and the Sakura TreeWriting library : XviD 1.0.1 (UTC 2004-06-05)Language : JapaneseDefault : YesForced : No

Audio #1ID : 2Format : VorbisFormat settings, Floor : 1Codec ID : A_VORBISDuration : 24mn 20sBit rate mode : VariableBit rate : 176 KbpsChannel(s) : 2 channelsSampling rate : 48.0 KHzCompression mode : LossyStream size : 30.6 MiB (12%)Title : ogg_jpnWriting library : libVorbis 1.0 (UTC 2002-07-17)Language : JapaneseDefault : YesForced : No

Audio #2ID : 3Format : VorbisFormat settings, Floor : 1Codec ID : A_VORBISDuration : 24mn 20sBit rate mode : VariableBit rate : 176 KbpsChannel(s) : 2 channelsSampling rate : 48.0 KHzCompression mode : LossyStream size : 30.6 MiB (12%)Title : ogg_engWriting library : libVorbis 1.0 (UTC 2002-07-17)Language : EnglishDefault : NoForced : No

Audio #3ID : 4Format : VorbisFormat settings, Floor : 1Codec ID : A_VORBISDuration : 24mn 20sBit rate mode : VariableBit rate : 128 KbpsChannel(s) : 2 channelsSampling rate : 48.0 KHzCompression mode : LossyStream size : 22.3 MiB (9%)Title : ogg_rusWriting library : libVorbis 1.0 (UTC 2002-07-17)Language : RussianDefault : NoForced : No

Text #1ID : 5Format : UTF-8Codec ID : S_TEXT/UTF8Codec ID/Info : UTF-8 Plain TextTitle : sub_rusLanguage : RussianDefault : YesForced : No

Text #2ID : 6Format : UTF-8Codec ID : S_TEXT/UTF8Codec ID/Info : UTF-8 Plain TextTitle : sub_engLanguage : EnglishDefault : NoForced : No


Трекер:  [ 08-Сен-2017 18:30 ]

  

Скачать .torrent

Размер .torrent файла 17 KB


Размер: 3.21 GB
Хэш (hash) релиза: 6af500a828bb0bdd7afbdb9ffb91f5320d452ea3
Подписка на обновления:

Торренты, похожие на Клуб любителей магии Mahou Tsukai Tai скачать торрент

Форум Название Автор Размер S L Добавлен
Аниме | Rips ·· Клуб любителей магии / Mahou Tsukai Tai / Magic Users Club [OVA] [6 из 6] [Без хардсаба] [JAP+SUB][1996, комедия, романтика, мистика, DVDRip] Galfimbul 13083755951.22 GB 0 0 1504882922

18:02

8-Сен-17

Аниме | DVD ·· Клуб любителей магии / Magic User's Club / Mahou Tsukai Tai [OAV] [1-3 из 6] [1996 г., махо-сёдзё, комедия, фэнтези, этчи, DVD5] [Любительская] Galfimbul 45624913924.25 GB 0 0 1310318988

20:29

10-Июл-11

Еще никто не оставлял запись к записи скачать торрент Клуб любителей магии Mahou Tsukai Tai . Будь первым!

!Обратная связь