Скачать через торрент Новые приключения Белоснежки Белоснежка 2 Фильм бесплатно в хорошем качестве torrent

Скачивайте на UnionPeer.org фильмы через торрент без регистрации. Новинки кино в хорошем качестве через торрент. На UnionPeer.org можно скачать через торрент фильмы 2014 и 2015 годов. Самые новые фильмы.

Скачать торрент Новые приключения Белоснежки Белоснежка 2 бесплатно через .torrent фильм мультфильм сериал

Если у вас наблюдаются проблемы со скриншотами, переходом по ссылками, скачиванием торрентов - проблемы в блокировщике рекламы AdBlock. #хорошегоДня!


Статистика раздачи
Размер:  1.47 GB   |    Зарегистрирован:  16 дней   |    .torrent скачан:  4 раза   |   
Раздают:  1  
   
Загрузка...
 
Автор Сообщение

Galfimbul

avatar Galfimbul


Новые приключения Белоснежки / Белоснежка 2 / Happily Ever After

Страна: США
Жанр: Анимация
Продолжительность: 01:11:02
Год выпуска: 1988
Перевод: Авторский (одноголосый закадровый) Александр Кашкин (Первомайский)
Перевод 2: Авторский (одноголосый закадровый) Андрей Дольский
Перевод 3: Авторский (одноголосый закадровый) Василий Горчаков
Русские субтитры: нет

Режиссёр: Джон Хаули / John Howley
Роли озвучивали: Эдвард Эснер, Ирена Кара, Кэрол Чэннинг, Дом ДеЛуис, Филлис Диллер, Жа Жа Габор, Линда Гэри, Джонатан Харрис, Майкл Хортон, Сэлли Келлермен

Описание: Белоснежка собирается замуж за принца, но влюбленную пару похищает дракон. Счастливо выпав (в буквальном смысле слова) из его когтей она попадает на сей раз не к семи гномам, а к их кузинам…

Доп. информация: Дорожка с А. Кашкиным синхронизирована и наложена ale_x2008 при помощи Adobe Audition, Sony Vegas и VirtualDubMod.
За оцифрованную с VHS дорожку благодарим - d_rocker

За дорожку Дольского спасибо 21Sepsis

Дорожка с В. Горчаковым синхронизирована и наложена ale_x2008 при помощи Adobe Audition, Sony Vegas и VirtualDubMod.

За оцифрованную с VHS дорожку благодарим - Raptorio Rio

Релиз

Семпл: https://yadi.sk/i/KhTK5NQJ3Miohk

Качество: DVDRip [dragomire]
Формат: AVI
Видео: 720x544 (1.32:1), 25.000 fps, XviD 63 ~2 361 kbps avg, 0.24 bit/pixel
Аудио: AC3 Dolby Digital, 48000Hz, 2/0 (L,R) ch, 192.00 kbps avg Кашкин
Аудио: AC3 Dolby Digital, 48000Hz, 2/0 (L,R) ch, 192.00 kbps avg Дольский
Аудио: AC3 Dolby Digital, 48000Hz 2/0 (L,R) ch (mono), 192.00 kbps avg Горчаков
Субтитры:
отсутствуют
Новые приключения Белоснежки - Happily Ever After (by Edich2).aviFormat : AVIFormat/Info : Audio Video InterleaveFile size : 1.37 GiBDuration : 1 h 11 minOverall bit rate : 2 759 kb/sMovie name : Новые приключения Белоснежки - Happily Ever After (by Edich2)Director : by Edich2Writing application : VirtualDubMod 1.5.10.2 (build 2540/release)Comment : RuTracker.org

VideoID : 0Format : MPEG-4 VisualFormat profile : Advanced Simple@L5Format settings, BVOP : 1Format settings, QPel : NoFormat settings, GMC : No warppointsFormat settings, Matrix : CustomCodec ID : XVIDCodec ID/Hint : XviDDuration : 1 h 11 minBit rate : 2 361 kb/sWidth : 720 pixelsHeight : 544 pixelsDisplay aspect ratio : 4:3Frame rate : 25.000 FPSColor space : YUVChroma subsampling : 4:2:0Bit depth : 8 bitsScan type : ProgressiveCompression mode : LossyBits/(Pixel*Frame) : 0.241Stream size : 1.17 GiB (86%)Writing library : XviD 63

Audio #1ID : 1Format : AC-3Format/Info : Audio Coding 3Mode extension : CM (complete main)Format settings, Endianness : BigCodec ID : 2000Duration : 1 h 11 minBit rate mode : ConstantBit rate : 192 kb/sChannel(s) : 2 channelsChannel positions : Front: L RSampling rate : 48.0 kHzFrame rate : 31.250 FPS (1536 spf)Compression mode : LossyStream size : 97.5 MiB (7%)Alignment : Split accross interleavesInterleave, duration : 40 ms (1.00 video frame)Interleave, preload duratio : 500 ms

Audio #2ID : 2Format : AC-3Format/Info : Audio Coding 3Mode extension : CM (complete main)Format settings, Endianness : BigCodec ID : 2000Duration : 1 h 11 minBit rate mode : ConstantBit rate : 192 kb/sChannel(s) : 2 channelsChannel positions : Front: L RSampling rate : 48.0 kHzFrame rate : 31.250 FPS (1536 spf)Compression mode : LossyStream size : 97.5 MiB (7%)Alignment : Split accross interleavesInterleave, duration : 40 ms (1.00 video frame)Interleave, preload duratio : 500 ms

Audio #3ID : 2Format : AC-3Format/Info : Audio Coding 3Mode extension : CM (complete main)Format settings, Endianness : BigCodec ID : 2000Duration : 1 h 11 minBit rate mode : ConstantBit rate : 192 kb/sChannel(s) : 2 channelsChannel positions : Front: L RSampling rate : 48.0 kHzFrame rate : 31.250 FPS (1536 spf)Compression mode : LossyStream size : 97.5 MiB (7%)Alignment : Split accross interleavesInterleave, duration : 40 ms (1.00 video frame)Interleave, preload duratio : 500 ms
ТОРРЕНТ ПЕРЕЗАЛИТ. ДОБАВЛЕН ПЕРЕВОД ГОРЧАКОВА

Трекер:  [ 08-Сен-2017 18:06 ]

  

Скачать .torrent

Размер .torrent файла 15 KB


Размер: 1.47 GB
Хэш (hash) релиза: 1a25fcd84cbd0a95cbd2b1ff84516ec16f35ac35
Подписка на обновления:

Еще никто не оставлял запись к записи скачать торрент Новые приключения Белоснежки Белоснежка 2 . Будь первым!

!Обратная связь