Скачать через торрент Клуб любителей магии Mahou Tsukai Tai бесплатно Аниме Все серии на русском torrent

Если у вас наблюдаются проблемы со скриншотами, переходом по ссылками, скачиванием торрентов - проблемы в блокировщике рекламы AdBlock. #хорошегоДня!


Статистика раздачи
Размер:  1.22 GB   |    Зарегистрирован:  11 дней   |    .torrent скачан:  5 раз   |   
Раздают:  1  
   
Загрузка...
 
Автор Сообщение

Galfimbul

avatar Galfimbul


Клуб любителей магии / Mahou Tsukai Tai / Magic Users Club

Страна: Япония
Год выпуска: 1996
Жанр: комедия, романтика, мистика
Тип: OVA
Продолжительность: 6 серий x ~30 минут
Режиссер: Сато Дзюнъити
Студия: Triangle Staff

Перевод: субтитры, Kairel
Хардсаб: нет

Описание: Итак, на землю вторглись инопланетяне... медленно, лениво, но неотвратимо. И наши герои решили противостоять иноземным захватчикам магией)
Собственно на самом деле мульт не об этом. Это кавай, куча доброго фансервиса и море хорошего юмора.

Список эпизодов:

I'll Follow You
Giant Bells, Mistress Mizuha and Failed Magic!
The Wirlygig - Akane and Forbidden Magic!
The Sea - the Cave and the Magic Party!
Nanaka - Aburatsubo and Confession Magic?
Sae - Jeff and Big Magic

Доп. информация:

Клуб любителей магии / Mahou Tsukai Tai / Magic Users Club [TV] [13 из 13]

Качество: DVDRip
Формат видео: MKV
Видео: Xvid 640x480 23.976fps
Аудио: Vorbis 48000Hz stereo
Субтитры 1: SRT, русские
Субтитры 2: SRT, английские
GeneralUnique ID : 232127217632255189152889552245042433779 (0xAEA2137071EED0519AF6CBE4E567CEF3)Complete name : ***\Mahou_Tsukai_Tai_OAV_01_[4C213571].mkvFormat : MatroskaFormat version : Version 1File size : 209 MiBDuration : 27mn 51sOverall bit rate mode : VariableOverall bit rate : 1 048 KbpsEncoded date : UTC 2006-08-24 07:25:50Writing application : mkvmerge v1.7.0 ('What Do You Take Me For') built on Apr 28 2006 17:20:19Writing library : libebml v0.7.7 + libmatroska v0.8.0

VideoID : 1Format : MPEG-4 VisualFormat profile : Advanced Simple@L5Format settings, BVOP : 2Format settings, QPel : NoFormat settings, GMC : 3 warppointsFormat settings, Matrix : Default (H.263)Muxing mode : Packed bitstreamCodec ID : V_MS/VFW/FOURCC / XVIDCodec ID/Hint : XviDDuration : 27mn 51sBit rate : 851 KbpsWidth : 640 pixelsHeight : 480 pixelsDisplay aspect ratio : 4:3Frame rate mode : ConstantFrame rate : 23.976 fpsColor space : YUVChroma subsampling : 4:2:0Bit depth : 8 bitsScan type : ProgressiveCompression mode : LossyBits/(Pixel*Frame) : 0.116Stream size : 170 MiB (81%)Title : Mahou_Tsukai_Tai_OAV - 1Writing library : XviD 1.0.0 RC4 (Hola) (UTC 2004-04-05)Default : YesForced : No

AudioID : 2Format : VorbisFormat settings, Floor : 1Codec ID : A_VORBISDuration : 27mn 51sBit rate mode : VariableBit rate : 176 KbpsChannel(s) : 2 channelsSampling rate : 48.0 KHzCompression mode : LossyStream size : 35.1 MiB (17%)Title : oggWriting library : libVorbis 1.0 (UTC 2002-07-17)Language : JapaneseDefault : YesForced : No

Text #1ID : 3Format : UTF-8Codec ID : S_TEXT/UTF8Codec ID/Info : UTF-8 Plain TextTitle : engLanguage : EnglishDefault : NoForced : No

Text #2ID : 4Format : UTF-8Codec ID : S_TEXT/UTF8Codec ID/Info : UTF-8 Plain TextTitle : rusLanguage : RussianDefault : YesForced : No


Трекер:  [ 08-Сен-2017 18:01 ]

  

Скачать .torrent

Размер .torrent файла 13 KB


Размер: 1.22 GB
Хэш (hash) релиза: e210257dc295c32b8a4b061aac02c3a11a656240
Подписка на обновления:

Торренты, похожие на Клуб любителей магии Mahou Tsukai Tai скачать торрент

Форум Название Автор Размер S L Добавлен
Аниме | Rips ·· Клуб любителей магии / Mahou Tsukai Tai / Magic Users Club [TV] [13 из 13] [Без хардсаба] [RUS(int), ENG, JAP+SUB][1999, комедия, романтика, мистика, DVDRip] Galfimbul 34486906883.21 GB 0 0 1504884714

18:31

8-Сен-17

Аниме | DVD ·· Клуб любителей магии / Magic User's Club / Mahou Tsukai Tai [OAV] [1-3 из 6] [1996 г., махо-сёдзё, комедия, фэнтези, этчи, DVD5] [Любительская] Galfimbul 45624913924.25 GB 0 0 1310318988

20:29

10-Июл-11

Еще никто не оставлял запись к записи скачать торрент Клуб любителей магии Mahou Tsukai Tai . Будь первым!

!Обратная связь