Скачать через торрент Верные друзья: Летние хиты Les copains dabord chantent: Claudio Capeo, Vianney, Michel Fugain, Julien Dore, Shym, Julie Zenatti, Benjamin Biolay Фильм бесплатно в хорошем качестве torrent

Скачивайте на UnionPeer.org фильмы через торрент без регистрации. Новинки кино в хорошем качестве через торрент. На UnionPeer.org можно скачать через торрент фильмы 2014 и 2015 годов. Самые новые фильмы.

Скачать торрент Верные друзья: Летние хиты Les copains dabord chantent: Claudio Capeo, Vianney, Michel Fugain, Julien Dore, Shym, Julie Zenatti, Benjamin Biolay бесплатно через .torrent фильм мультфильм сериал

Если у вас наблюдаются проблемы со скриншотами, переходом по ссылками, скачиванием торрентов - проблемы в блокировщике рекламы AdBlock. #хорошегоДня!


Статистика раздачи
Размер:  2.58 GB   |    Зарегистрирован:  13 дней   |    .torrent скачан:  1 раз   |   
Раздают:  1  
   
Загрузка...
 
Автор Сообщение

Galfimbul

avatar Galfimbul


Верные друзья: Летние хиты
Les copains d'abord chantent l'ete
Дата/Год выпуска: 27.06.2017
Страна: Франция
Жанр: музыкально – развлекательное шоу
Продолжительность: 01:51:42
Перевод: Субтитры (русский перевод И.Рыбкиной, Eclair Media)
Русские субтитры: естьФормат субтитров: prerendered (IDX+SUB), softsub (SRT)
Доп. информация о субтитрах: русские, немецкие, нидерландские, румынские - (IDX+SUB); английские, французские - (SRT)
Оригинальная аудиодорожка: французский

Режиссер: Франсуа Гётгебёр / François Goetghebeur

Телеканал: TV5MONDE Europe

В ролях: Shy'm, Antoine Dulery, Kids United, Julien Dorй, Los del Rio, Yannick, Chico & the Gypsies, Raft, Michel Fugain, Claudio Capйo, Alma, Vianney, Benjamin Biolay, Slimane, Joyce Jonathan, Amadou & Mariam, Vitaa

Описание: В "Казино де Пари" прошел замечательный вечер, который напомнит вам о лете. Артисты привезли много сюрпризов: ремейки, а главное - прекрасные хиты.Треклист:
01. Los del Rio - Makarena (лето 1998)
02. Yannick - Ces soirees la (лето 2000)
03. Claudio Capeo - Le coup de soleil (лето 1980)
04. Vianney - Caroline (лето 1992)
05. Chico & The Gypsies - Medley:
---- Bamboleo (лето 1988)
---- Djobi Djoba (лето 1988)
06. Kids United - Happy (лето 2014)
07. Michel Fugain, Anais Delva, Sophie Tappie, Arcadian - La belle histoire (лето 1972)
08. Alma - Requiem (2017)
09. Julien Dore - Coco Caline (2017)
10. Amir - Au coeur de moi (2017)
11. RAFT - Yaka Danse (лето 1988)
12. Shy'm - Si tu m'aimes encore (2017)
13. Slimane - Tout le bonheur du monde (лето 2005)
14. Julie Zenatti, Elisa Tovati, Nawel Ben Kraiem - La cafe des delices (лето 1999)
15. Joyce Jonathan - Derniers baisers (лето 1962)
16. Amadou et Marian - Dimanche a Bamako (лето 2004)
17. Vitaa - Au soleil (лето 2002)
18. Claudio Capeo - Riche (2017)
19. Yakalelo - Nomads (лето 1988)
20. Shy'm - L'amour a la plage (лето 1986)
21. L'Artiste et Awa Imani - Clandestino (лето 1998)
22. Alma - Sous le soleil exaxtement (лето 1967)
23. Benjamin Biolay et Sofia Wilhelm - Roma (2017)
24. Mat Bastard - Holiday (лето 1983)
25. Vitaa - Comme dab (2017)
26. Les Copayns d'abord - Georges Brassens (1964)

Источник: Hot Bird (13.0°E) DVB-S



качество: DVB
формат: MKV
Видео: MPEG Video 2, 720x576@1024x576 (16:9), 25 fps, ~3100 kbps avg, 0.299 bit/pixel
Аудио: MPEG Audio 2, 2 ch, 48 kHz, ~192.00 kbps avg - французский
GeneralUnique ID : 233160578365984776812420443855587731077 (0xAF69180E9619800C91C858056A7D6685)Complete name : [apreder]Les_copains_d'abord_chantent_l'ete(27.06.2017)DVB.mkvFormat : MatroskaFormat version : Version 2File size : 2.58 GiBDuration : 1 h 51 minOverall bit rate mode : VariableOverall bit rate : 3 305 kb/sMovie name : Les copains d'abord chantent l'eteReleased date : 2017-06-27Encoded date : UTC 2017-09-08 13:14:12Writing application : mkvmerge v15.0.0 ('Duel with the Devil') 64-bitWriting library : libebml v1.3.5 + libmatroska v1.4.5Cover : YesAttachments : cover.jpg / small_cover.jpgDIRECTOR : Francois GoetghebeurGENRE : ShowIMDB : tt7055506KEYWORDS : rutracker.orgLAW_RATING : 16+

VideoID : 1Format : MPEG VideoFormat version : Version 2Format profile : Main@MainFormat settings, BVOP : YesFormat settings, Matrix : DefaultFormat settings, GOP : VariableFormat settings, picture structure : FrameCodec ID : V_MPEG2Codec ID/Info : MPEG 1 or 2 VideoDuration : 1 h 51 minBit rate mode : VariableBit rate : 3 100 kb/sWidth : 720 pixelsHeight : 576 pixelsDisplay aspect ratio : 16:9Frame rate mode : ConstantFrame rate : 25.000 FPSStandard : PALColor space : YUVChroma subsampling : 4:2:0Bit depth : 8 bitsScan type : InterlacedScan order : Top Field FirstCompression mode : LossyBits/(Pixel*Frame) : 0.299Time code of first frame : 00:00:00:00Time code source : Group of pictures headerStream size : 2.42 GiB (94%)Default : YesForced : No

AudioID : 2Format : MPEG AudioFormat version : Version 1Format profile : Layer 2Mode : Joint stereoMode extension : Intensity Stereo + MS StereoCodec ID : A_MPEG/L2Codec ID/Hint : MP2Duration : 1 h 51 minBit rate mode : ConstantBit rate : 192 kb/sChannel(s) : 2 channelsSampling rate : 48.0 kHzFrame rate : 41.667 FPS (1152 SPF)Compression mode : LossyStream size : 153 MiB (6%)Language : FrenchDefault : YesForced : No

Text #1ID : 3Format : VobSubCodec ID : S_VOBSUBCodec ID/Info : Picture based subtitle format used on DVDsDuration : 1 h 51 minBit rate : 1 686 b/sCount of elements : 618Stream size : 1.34 MiB (0%)Language : RussianDefault : NoForced : No

Text #2ID : 4Format : UTF-8Codec ID : S_TEXT/UTF8Codec ID/Info : UTF-8 Plain TextDuration : 1 h 51 minBit rate : 14 b/sCount of elements : 411Stream size : 12.2 KiB (0%)Language : EnglishDefault : NoForced : No

Text #3ID : 5Format : UTF-8Codec ID : S_TEXT/UTF8Codec ID/Info : UTF-8 Plain TextDuration : 1 h 51 minBit rate : 15 b/sCount of elements : 411Stream size : 12.9 KiB (0%)Language : FrenchDefault : NoForced : No

Text #4ID : 6Format : VobSubCodec ID : S_VOBSUBCodec ID/Info : Picture based subtitle format used on DVDsDuration : 1 h 51 minBit rate : 1 284 b/sCount of elements : 412Stream size : 1.02 MiB (0%)Language : GermanDefault : NoForced : No

Text #5ID : 7Format : VobSubCodec ID : S_VOBSUBCodec ID/Info : Picture based subtitle format used on DVDsDuration : 1 h 51 minBit rate : 1 249 b/sCount of elements : 412Stream size : 1 019 KiB (0%)Language : DutchDefault : NoForced : No

Text #6ID : 8Format : VobSubCodec ID : S_VOBSUBCodec ID/Info : Picture based subtitle format used on DVDsDuration : 1 h 51 minBit rate : 906 b/sCount of elements : 346Stream size : 739 KiB (0%)Language : RomanianDefault : NoForced : No


<div class="sp-wrap">
<div class="sp-head folded">Резервные скриншоты</div>
<div class="sp-body">

</div>
</div>
[3'864]

Трекер:  [ 08-Сен-2017 17:42 ]

  

Скачать .torrent

Размер .torrent файла 26 KB


Размер: 2.58 GB
Хэш (hash) релиза: a512e21abec98cc6dc48a2975c8774fb7480d9a8
Подписка на обновления:

Еще никто не оставлял запись к записи скачать торрент Верные друзья: Летние хиты Les copains dabord chantent: Claudio Capeo, Vianney, Michel Fugain, Julien Dore, Shym, Julie Zenatti, Benjamin Biolay . Будь первым!

!Обратная связь