Скачать через торрент Графомафия Фильм бесплатно в хорошем качестве torrent

Скачивайте на UnionPeer.org фильмы через торрент без регистрации. Новинки кино в хорошем качестве через торрент. На UnionPeer.org можно скачать через торрент фильмы 2014 и 2015 годов. Самые новые фильмы.

Скачать торрент Графомафия бесплатно через .torrent фильм мультфильм сериал

Если у вас наблюдаются проблемы со скриншотами, переходом по ссылками, скачиванием торрентов - проблемы в блокировщике рекламы AdBlock. #хорошегоДня!


Статистика раздачи
Размер:  1.46 GB   |    Зарегистрирован:  2 месяца 14 дней   |    .torrent скачан:  74 раза   |   
Раздают:  1  
   
Загрузка...
 
Автор Сообщение

Galfimbul

avatar Galfimbul


Графомафия

Выпущено: Студия Крылья
Жанр: комедия
Год выпуска: 2017
Продолжительность: 01:33:35
Субтитры: нетРежиссер: Владимир Зайкин, Эдуард РадзюкевичВ ролях: Гоша Куценко, Даниил Спиваковский, Станислав Дужников, Эдуард Радзюкевич, Юрий Стоянов, Дарья Екамасова, Маргарита Шубина, Аристарх Венес, Дарья Мороз, Владимир ЕпифанцевОписание: Успешный издатель Надежда Павловна нанимает мечтающих о славе графоманов, чтобы убить талантливого писателя и присвоить его роман, который принесет славу ее обожаемому сыну. Но Шурок равнодушен и к славе, и к литературе. Он любит дорогие машины и красивых девушек. Банда графоманов с энтузиазмом берется за дело. Ведь цена успеха — издание их творений. Но, оказывается, применять кровавые методы в жизни намного сложнее, чем в написании триллера. У каждого свое представление об успехе и счастье. Для одних это встреча с возлюбленным, для других — популярность в соцсетях, а для кого-то предел мечтаний увидеть свое имя на книжной обложке.Качество видео: WEB-DLRip
Формат видео: AVI

Видео: 720x304 (2.37:1), 25 fps, XviD build 73 ~1834 kbps avg, 0.34 bit/pixel
Аудио: 48 kHz, AC3 Dolby Digital, 3/2 (L,C,R,l,r) + LFE ch, ~384 kbpsСкачать сэмпл
Format                      : AVI
Format/Info                 : Audio Video Interleave
File size                   : 1.46 GiB
Duration                    : 1 h 33 min
Overall bit rate            : 2 228 kb/s
Writing application         : VirtualDubMod 1.5.10.3 | www.virtualdub-fr.org || (build 2550/release)
Writing library             : VirtualDubMod build 2550/release

Video
ID                          : 0
Format                      : MPEG-4 Visual
Format profile              : Advanced Simple@L5
Format settings, BVOP       : 1
Format settings, QPel       : No
Format settings, GMC        : No warppoints
Format settings, Matrix     : Custom
Codec ID                    : XVID
Codec ID/Hint               : XviD
Duration                    : 1 h 33 min
Bit rate                    : 1 835 kb/s
Width                       : 720 pixels
Height                      : 304 pixels
Display aspect ratio        : 2.35:1
Frame rate                  : 25.000 FPS
Color space                 : YUV
Chroma subsampling          : 4:2:0
Bit depth                   : 8 bits
Scan type                   : Progressive
Compression mode            : Lossy
Bits/(Pixel*Frame)          : 0.335
Stream size                 : 1.20 GiB (82%)
Writing library             : XviD 73

Audio
ID                          : 1
Format                      : AC-3
Format/Info                 : Audio Coding 3
Format settings, Endianness : Big
Codec ID                    : 2000
Duration                    : 1 h 33 min
Bit rate mode               : Constant
Bit rate                    : 384 kb/s
Channel(s)                  : 6 channels
Channel positions           : Front: L C R, Side: L R, LFE
Sampling rate               : 48.0 kHz
Frame rate                  : 31.250 FPS (1536 spf)
Bit depth                   : 16 bits
Compression mode            : Lossy
Stream size                 : 257 MiB (17%)
Alignment                   : Split accross interleaves
Interleave, duration        : 40  ms (1.00 video frame)
Interleave, preload duratio : 500  ms
Service kind                : Complete Main


Трекер:  [ 08-Сен-2017 17:24 ]

  

Скачать .torrent

Размер .torrent файла 15 KB


Размер: 1.46 GB
Хэш (hash) релиза: a2a44dc1b7b816660afd300d9ec02507f76ccfc0
Подписка на обновления:

Торренты, похожие на Графомафия скачать торрент

Форум Название Автор Размер S L Добавлен
Российские фильмы до 2016 ·· Графомафия (Владимир Зайкин, Эдуард Радзюкевич) [2017, Россия, комедия, WEB-DL 1080p] Original Rus Galfimbul 36038661063.36 GB 0 0 1505138920

17:08

11-Сен-17

Российские фильмы 2016-2017 (Новинки русского кино) ·· Графомафия (Владимир Зайкин, Эдуард Радзюкевич) [2017, комедия, WEB-DL 1080p] iTunes Galfimbul 36038585213.36 GB 2 0 1504848617

08:30

8-Сен-17

Еще никто не оставлял запись к записи скачать торрент Графомафия . Будь первым!

!Обратная связь