Скачать через торрент Ку-ка-ре-ку Ki-ke-ri-gu Фильм бесплатно в хорошем качестве torrent

Скачивайте на UnionPeer.org фильмы через торрент без регистрации. Новинки кино в хорошем качестве через торрент. На UnionPeer.org можно скачать через торрент фильмы 2014 и 2015 годов. Самые новые фильмы.

Скачать торрент Ку-ка-ре-ку Ki-ke-ri-gu бесплатно через .torrent фильм мультфильм сериал

Если у вас наблюдаются проблемы со скриншотами, переходом по ссылками, скачиванием торрентов - проблемы в блокировщике рекламы AdBlock. #хорошегоДня!


Статистика раздачи
Размер:  145 MB   |    Зарегистрирован:  2 месяца 15 дней   |    .torrent скачан:  8 раз   |   
Раздают:  1  
   
Загрузка...
 
Автор Сообщение

Galfimbul

avatar Galfimbul


Ку-ка-ре-ку / Ki-ke-ri-gu

Страна: СССР (Латвийская республика)
Жанр: мультфильм
Продолжительность: 00:09:31
Год выпуска: 1966
Перевод: не требуется
Русские субтитры: нет

Режиссёр: Арнольд Буровс / Arnolds Burovs

Описание: По мотивам народной сказки. Про бедного крестьянина, смелого петушка, волшебную мельничку и жадного богача.

Качество: DVDRip
Формат: AVI
Видео: 1995 kbps, 720х528 (4:3), 25.000 fps, MPEG-4 Visual (XviD)
Аудио: 128 kbps, 44.1 kHz, 2 channels, MPEG Audio (MP3)
Субтитры: отсутствуют
GeneralComplete name : Ki-ke-ri-gu (1966).aviFormat : AVIFormat/Info : Audio Video InterleaveFile size : 145 MiBDuration : 9mn 31sOverall bit rate : 2 133 KbpsWriting application : VirtualDubMod 1.5.10.3 | www.virtualdub-fr.org || (build 2550/release)Writing library : VirtualDub build 35576/release

VideoID : 0Format : MPEG-4 VisualFormat profile : Advanced Simple@L5Format settings, BVOP : 2Format settings, QPel : NoFormat settings, GMC : No warppointsFormat settings, Matrix : Default (H.263)Codec ID : XVIDCodec ID/Hint : XviDDuration : 9mn 31sBit rate : 1 995 KbpsWidth : 720 pixelsHeight : 528 pixelsDisplay aspect ratio : 4:3Frame rate : 25.000 fpsColor space : YUVChroma subsampling : 4:2:0Bit depth : 8 bitsScan type : ProgressiveCompression mode : LossyBits/(Pixel*Frame) : 0.210Stream size : 136 MiB (94%)Writing library : XviD 73

AudioID : 1Format : MPEG AudioFormat version : Version 1Format profile : Layer 3Codec ID : 55Codec ID/Hint : MP3Duration : 9mn 31sBit rate mode : ConstantBit rate : 128 KbpsChannel(s) : 2 channelsSampling rate : 44.1 KHzCompression mode : LossyStream size : 8.73 MiB (6%)Alignment : Split accross interleavesInterleave, duration : 40 ms (1.00 video frame)Interleave, preload duration : 500 msWriting library : LAME3.99rEncoding settings : -m s -V 4 -q 2 -lowpass 17 -b 128


Трекер:  [ 08-Сен-2017 14:36 ]

  

Скачать .torrent

Размер .torrent файла 12 KB


Размер: 145 MB
Хэш (hash) релиза: a1864fed6292e27316ed804425766bd4273116e8
Подписка на обновления:

Еще никто не оставлял запись к записи скачать торрент Ку-ка-ре-ку Ki-ke-ri-gu . Будь первым!

!Обратная связь