Скачать через торрент Флотская коллекция Gekijouban Kantai Collection: KanColle бесплатно Аниме Все серии на русском torrent

Если у вас наблюдаются проблемы со скриншотами, переходом по ссылками, скачиванием торрентов - проблемы в блокировщике рекламы AdBlock. #хорошегоДня!


Статистика раздачи
Размер:  1.49 GB   |    Зарегистрирован:  12 дней   |    .torrent скачан:  6 раз   |   
Раздают:  1  
   
Загрузка...
 
Автор Сообщение

Galfimbul

avatar Galfimbul


Флотская коллекция / Gekijouban Kantai Collection: KanColle / 劇場版 艦これ
Год выпуска: 2016 г.
Страна: Япония
Жанр: Экшен, Военный, Повседневность, ШколаТип: MovieПродолжительность: 1 эп. по 93 мин.
Режиссер: Кусакава Кэйдзо
Студия: Studio BarcelonaПеревод:

Русские субтитры от anipaladin

Описание:
Таинственный враг, появившийся из глубин морей, захватил контроль над всеми морями мира. Только девушки, обладающие душами военных кораблей времен второй мировой войны, могут противостоять "Флоту глубоководного моря". После потери базы, благодаря стратегии Адмирала, девочки-корабли одержали победу, но после их жестокогобоя, борьба становилась все более ожесточенной. Основываясь на успешной стратегии, в качестве плацдарма, силы стягиваются к югу. Продолжая захватывать новую территорию у противника, он расширяет свой театр боевых действий. Собранные на новой передовой базе, девушки готовятся к следующей миссии. Благодаря успешным боевым действиям и присоединившейся новой боевой мощи, девушки смогли преуспеть в стратегии и были в приподнятом настроении, но оказалось, что в центре боевой зоны произошла серьезная авария. Так что же ожидает девочек-кораблей?Информационные ссылки: World Art || AniDB || MALКачество: BDRip | Рип: [Ohys-Raws]
Тип релиза: Без хардсаба
Формат видео: MP4
Наличие линковки: Нет
Видео: AVC, 1280x720, 2054 ~kbps, 23.976 fps [8 bit]
Аудио:
1. Japanese AAC, 48.0 KHz, ~225 kbps, 2 ch;
Субтитры:

Russian: ASS, внешние;
General Format : MPEG-4 Format profile : Base Media Codec ID : isom File size : 1.49 GiB Duration : 1h 33mn Overall bit rate mode : Variable Overall bit rate : 2 284 Kbps Encoded date : UTC 2017-09-01 17:09:37 Tagged date : UTC 2017-09-01 17:09:37 Video #1 ID : 1 Format : AVC Format/Info : Advanced Video Codec Format profile : Main@L4.1 Format settings, CABAC : Yes Format settings, ReFrames : 4 frames Codec ID : avc1 Codec ID/Info : Advanced Video Coding Duration : 1h 33mn Bit rate : 2 054 Kbps Maximum bit rate : 15.2 Mbps Width : 1 280 pixels Height : 720 pixels Display aspect ratio : 16:9 Frame rate mode : Constant Frame rate : 23.976 fps Color space : YUV Chroma subsampling : 4:2:0 Bit depth : 8 bits Scan type : Progressive Bits/(Pixel*Frame) : 0.093 Stream size : 1.34 GiB (90%) Writing library : x264 core 152 r2851+58 429492e t_mod_Custom [8-bit@all X86_64] Encoding settings : cabac=1 / ref=3 / deblock=1:0:0 / analyse=0x1:0x131 / me=umh / subme=9 / psy=1 / fade_compensate=0.00 / psy_rd=1.00:0.00 / mixed_ref=1 / me_range=32 / chroma_me=1 / trellis=1 / 8x8dct=0 / cqm=0 / deadzone=21,11 / fast_pskip=1 / chroma_qp_offset=-2 / threads=12 / lookahead_threads=1 / sliced_threads=0 / nr=0 / decimate=1 / interlaced=0 / bluray_compat=0 / constrained_intra=0 / fgo=0 / bframes=3 / b_pyramid=2 / b_adapt=1 / b_bias=0 / direct=1 / weightb=1 / open_gop=0 / weightp=2 / keyint=240 / keyint_min=1 / scenecut=40 / intra_refresh=0 / rc_lookahead=40 / rc=crf / mbtree=1 / crf=18.0000 / qcomp=0.60 / qpmin=0:0:0 / qpmax=69:69:69 / qpstep=4 / ip_ratio=1.40 / aq=1:1.00 / aq-sensitivity=10.00 / aq-factor=1.00:1.00:1.00 / aq2=0 / aq3=0 Encoded date : UTC 2017-09-01 17:09:37 Tagged date : UTC 2017-09-01 17:09:49 Audio #2 ID : 2 Format : AAC Format/Info : Advanced Audio Codec Format profile : LC Codec ID : 40 Duration : 1h 33mn Bit rate mode : Variable Bit rate : 225 Kbps Maximum bit rate : 260 Kbps Channel(s) : 2 channels Channel positions : Front: L R Sampling rate : 48.0 KHz Compression mode : Lossy Stream size : 150 MiB (10%) Language : Japanese Encoded date : UTC 2017-09-01 15:10:41 Tagged date : UTC 2017-09-01 17:09:49


Трекер:  [ 08-Сен-2017 10:01 ]

  

Скачать .torrent

Размер .torrent файла 15 KB


Размер: 1.49 GB
Хэш (hash) релиза: 7298127f85a6d0101c1c30377cb4f5b7870e84b2
Подписка на обновления:

Торренты, похожие на Флотская коллекция Gekijouban Kantai Collection: KanColle скачать торрент

Форум Название Автор Размер S L Добавлен
Аниме | HD Rips ·· Флотская коллекция / Gekijouban KanColle / Gekijouban Kantai Collection [Movie] [Без хардсаба] [JAP+SUB] [2016, экшен, военный, повседневность, драма, BDRip] [1080p] Galfimbul 1171903154410.91 GB 0 0 1505304155

15:02

13-Сен-17

Еще никто не оставлял запись к записи скачать торрент Флотская коллекция Gekijouban Kantai Collection: KanColle . Будь первым!

!Обратная связь