Скачать через торрент Старый Кёнигсберг Фильм бесплатно в хорошем качестве torrent

Скачивайте на UnionPeer.org фильмы через торрент без регистрации. Новинки кино в хорошем качестве через торрент. На UnionPeer.org можно скачать через торрент фильмы 2014 и 2015 годов. Самые новые фильмы.

Скачать торрент Старый Кёнигсберг бесплатно через .torrent фильм мультфильм сериал

Если у вас наблюдаются проблемы со скриншотами, переходом по ссылками, скачиванием торрентов - проблемы в блокировщике рекламы AdBlock. #хорошегоДня!


Статистика раздачи
Размер:  892 MB   |    Зарегистрирован:  2 месяца 16 дней   |    .torrent скачан:  17 раз   |   
Раздают:  1  
   
Загрузка...
 
Автор Сообщение

Galfimbul

avatar Galfimbul


Старый Кёнигсберг (750 лет истории)

Год выпуска: 2004
Страна: Россия
Жанр: документальный, исторический
Продолжительность: 59:42
Перевод: не требуется
Русские субтитры: нет
Режиссёр: Евгений Морозов

Описание:
Увлекательный документально-исторический фильм рассказывающий о зарождении города Кёнигсберг с самых истоков. В картине также отображены важнейшие вехи истории города за всё время его существования т.е. с 1255 по 2004 гг., когда и был создан фильм. Сам фильм был приурочен к 750-ти летию Кёнигсберга, ныне Калининграда.

Ведущий: Игорь Жизневский
Литературный текст: Евгений Морозов
Диктор английского текста: Стивен Анкенман
Диктор немецкого текста: Грегор Голембиевски

Качество: DVDRip
Формат: AVI
Видео: DivX, 720x384 (1.88:1), 25 fps, 1699 kbps
Audio #1: MP3, 48 kHz, 128 kbps, 2 ch (русская дорожка)
Audio #2: MP3, 48 kHz, 128 kbps, 2 ch (английская дорожка)
Audio #3: MP3, 48 kHz, 128 kbps, 2 ch (немецкая дорожка)
Общее
Полное имя : Staryj.Kenigsberg.rus.eng.ger.DVDRIp.by.gera.avi
Формат : AVI
Формат/Информация : Audio Video Interleave
Размер файла : 892 Мбайт
Продолжительность : 59 м.
Общий поток : 2089 Кбит/сек
Жанр : Documentary
Программа кодирования : VirtualDubMod 1.5.10.2 (build 2540/release)
Формат оригинала/Имя : Movie
Примечание : DVDRip by gera

Видео
Идентификатор : 0
Формат : MPEG-4 Visual
Параметр BVOP формата : 2
Параметр QPel формата : Нет
Параметр GMC формата : Без точки перехода
Параметр матрицы формата : Default (MPEG)
Режим смешивания : Сжатый битовый поток
Идентификатор кодека : DX50
Идентификатор кодека/Подсказка : DivX 5
Продолжительность : 59 м.
Битрейт : 1699 Кбит/сек
Ширина : 720 пикселей
Высота : 384 пикселя
Соотношение сторон : 1,85:1
Частота кадров : 25,000 кадров/сек
Цветовое пространство : YUV
Субдискретизация насыщенности : 4:2:0
Битовая глубина : 8 бит
Тип развёртки : Чересстрочная
Порядок развёртки : Нижнее поле первое
Метод сжатия : С потерями
Бит/(Пиксели*Кадры) : 0.246
Размер потока : 726 Мбайт (81%)
Библиотека кодирования : DivX 6.8.0 (UTC 2007-12-04)

Аудио #1
Идентификатор : 1
Формат : MPEG Audio
Версия формата : Version 1
Профиль формата : Layer 3
Режим : Joint stereo
Идентификатор кодека : 55
Идентификатор кодека/Подсказка : MP3
Продолжительность : 59 м.
Вид битрейта : Постоянный
Битрейт : 128 Кбит/сек
Каналы : 2 канала
Частота : 48,0 КГц
Метод сжатия : С потерями
Размер потока : 54,7 Мбайт (6%)
Выравнивание : Соединение по промежуткам
Продолжительность промежутка : 1000 мс. (25,00 видеокадров)
Время предзагрузки промежутка : 1008 мс.

Аудио #2
Идентификатор : 2
Формат : MPEG Audio
Версия формата : Version 1
Профиль формата : Layer 3
Режим : Joint stereo
Идентификатор кодека : 55
Идентификатор кодека/Подсказка : MP3
Продолжительность : 59 м.
Вид битрейта : Постоянный
Битрейт : 128 Кбит/сек
Каналы : 2 канала
Частота : 48,0 КГц
Метод сжатия : С потерями
Размер потока : 54,7 Мбайт (6%)
Выравнивание : Соединение по промежуткам
Продолжительность промежутка : 1000 мс. (25,00 видеокадров)
Время предзагрузки промежутка : 1008 мс.

Аудио #3
Идентификатор : 3
Формат : MPEG Audio
Версия формата : Version 1
Профиль формата : Layer 3
Режим : Joint stereo
Идентификатор кодека : 55
Идентификатор кодека/Подсказка : MP3
Продолжительность : 59 м.
Вид битрейта : Постоянный
Битрейт : 128 Кбит/сек
Каналы : 2 канала
Частота : 48,0 КГц
Метод сжатия : С потерями
Размер потока : 54,7 Мбайт (6%)
Выравнивание : Соединение по промежуткам
Продолжительность промежутка : 1000 мс. (25,00 видеокадров)
Время предзагрузки промежутка : 1008 мс.
Скриншоты:



З.Ы. Рип с этого DVD

<img class="smile" src="//static.t-ru.org/smiles/icon_exclaim.gif" alt=""> Внимание! Торрент-файл перезалит 08.09.2017 без изменения содержимого раздачи в связи с просьбой администрации снять флаг «приватная раздача». Скачавшим ранее просьба перекачать торрент-файл, перехешировать содержимое и присоединиться к раздаче.

Трекер:  [ 08-Сен-2017 03:12 ]

  

Скачать .torrent

Размер .torrent файла 18 KB


Размер: 892 MB
Хэш (hash) релиза: cc91f39de5ec5f2f77c8d82c66c4cdf512ada0ab
Подписка на обновления:

Еще никто не оставлял запись к записи скачать торрент Старый Кёнигсберг . Будь первым!

!Обратная связь