Скачать через торрент Загадки острова Клиппертон Planete Clipperton Фильм бесплатно в хорошем качестве torrent

Скачивайте на UnionPeer.org фильмы через торрент без регистрации. Новинки кино в хорошем качестве через торрент. На UnionPeer.org можно скачать через торрент фильмы 2014 и 2015 годов. Самые новые фильмы.

Скачать торрент Загадки острова Клиппертон Planete Clipperton бесплатно через .torrent фильм мультфильм сериал

Если у вас наблюдаются проблемы со скриншотами, переходом по ссылками, скачиванием торрентов - проблемы в блокировщике рекламы AdBlock. #хорошегоДня!


Статистика раздачи
Размер:  1.76 GB   |    Зарегистрирован:  17 дней   |    .torrent скачан:  12 раз   |   
Раздают:  1  
   
Загрузка...
 
Автор Сообщение

Galfimbul

avatar Galfimbul


Загадки острова Клиппертон / Planete Clipperton

Год выпуска: 2005
Страна: Франция
Жанр: Документальный сериал
Перевод: Профессиональный (одноголосый)

Режиссер: Gedeon Programmes

Описание: Документальный сериал - 6 серий

1. Коралловое сердце / Coeur de corail
В 1200 километрах от берегов Мексики в Тихом океане находится необитаемый остров Клиппертон. Французский исследователь Жан-Луи Этьен вместе с семьей высаживается для 4-месячного пребывания в сердце уникальной экосистемы. 40 ученых, участвующих в экспедиции, описывают флору и фауну этого загадочного атолла.

2. Оранжевая армия / Une armee orange
Пляжи острова Клиппертон окрашиваются в оранжевый цвет из-за огромного количества крабов, которые живут на них. В то время как французские ученые занимаются исследованиями и классификацией встречающихся здесь видов, мы имеем возможность посмотреть за некоторыми интересными особенностями жизни этих животных.

3.Остров олуш / L'ile de fous
Каждый год после сезона ураганов на атолле собирается невероятно огромная птичья колония - половина мировой популяции масковых олуш. Самым привлекательным для птиц местом является закрытая лагуна с пресной водой - единственный пресный водоем во всей восточной части Тихого океана.

4. Захватчики / Les Envahisseurs
Жизнь на атолле, который был когда-то действующим вулканом, может появиться только извне. Птицы могут долететь до острова, растения появятся в результате того, что их семена принесут волны. Волны так же могут пвыбросить на берег корабль и на острове заведутся крысы. И, разумеется, тонны мусора, которые выкидываются человеком в океан, так же имеют шанс оказаться на солнечном необитаемом пляже.

5. Акулы в опасности / Requins en peril
Несмотря на имеющиеся проблемы, связанные с деятельностью человека, в акватории атолла Клиппертон водится большое количество самых разных морских обитателей.
Помимо наблюдения за жизнью рыб в естественной среде обитания, в фильме предоставляется нечастая возможность заглятуть в мозги акуле.

6. Озеро среди океана / Un lac en plein ocean
В последней части мини-сериала про необычный и во многом уникальный атолл - остров Клиппертон - ученые исследуют бактерии, которые обитают в водах пресноводного озера. Свойства некоторых таких микроорганизмов могут помочь медикам и другим исследователям.
Озеро-то достаточно не простое - оно образовалось на месте бывшего вулкана. И, возможно, очень глубокое.

Доп. информация: File: Загадки острова Клиппертон. 1. Коралловое сердце.avi
Filesize: 304.54 Mb ( 319 338 496 bytes )
Play length: 00:26:30.959 (39774 frames)
Subtitles: Not Present
Video: 640x352 (1.82:1), 25 fps, DivX Codec 5.2.1 build 1338 ~1499 kbps avg, 0.27 bit/pixel
Audio: 48 kHz, MPEG Layer 3, 1 ch, ~96.00 kbps avg

File: Загадки острова Клиппертон. 2. Оранжевая армия.avi
Filesize: 298.13 Mb ( 312 616 960 bytes )
Play length: 00:25:56.959 (38924 frames)
Subtitles: Not Present
Video: 640x352 (1.82:1), 25 fps, DivX Codec 5.2.1 build 1338 ~1500 kbps avg, 0.27 bit/pixel
Audio: 48 kHz, MPEG Layer 3, 1 ch, ~96.00 kbps avg

File: Загадки острова Клиппертон. 3. Остров олуш.avi
Filesize: 308.88 Mb ( 323 885 056 bytes )
Play length: 00:26:54.040 (40351 frames)
Subtitles: Not Present
Video: 640x352 (1.82:1), 25 fps, DivX Codec 5.2.1 build 1338 ~1499 kbps avg, 0.27 bit/pixel
Audio: 48 kHz, MPEG Layer 3, 1 ch, ~96.00 kbps avg

File: Загадки острова Клиппертон. 4. Захватчики.avi
Filesize: 274.97 Mb ( 288 331 776 bytes )
Play length: 00:23:57.160 (35929 frames)
Subtitles: Not Present
Video: 640x352 (1.82:1), 25 fps, DivX Codec 5.2.1 build 1338 ~1499 kbps avg, 0.27 bit/pixel
Audio: 48 kHz, MPEG Layer 3, 1 ch, ~96.00 kbps avg

File: Загадки острова Клиппертон. 5. Акулы в опасности.avi
Filesize: 308.01 Mb ( 322 975 744 bytes )
Play length: 00:26:48.920 (40223 frames)
Subtitles: Not Present
Video: 640x352 (1.82:1), 25 fps, DivX Codec 5.2.1 build 1338 ~1500 kbps avg, 0.27 bit/pixel
Audio: 48 kHz, MPEG Layer 3, 1 ch, ~96.00 kbps avg

File: Загадки острова Клиппертон. 6. Озеро среди океана.avi
Filesize: 305.43 Mb ( 320 266 240 bytes )
Play length: 00:26:35.560 (39889 frames)
Subtitles: Not Present
Video: 640x352 (1.82:1), 25 fps, DivX Codec 5.2.1 build 1338 ~1499 kbps avg, 0.27 bit/pixel
Audio: 48 kHz, MPEG Layer 3, 1 ch, ~96.00 kbps avg

Качество: TVRip
Формат: AVI
Видео кодек: DivX
Аудио кодек: MPEG Audio
Видео: DivX, 640x352 (1.82:1), 25 fps, 1500 kbps
Аудио: MP3, 48 kHz, 96 kbps, 1 ch
<div class="sp-wrap">
<div class="sp-head folded">Загадки острова Клиппертон. 1. Коралловое сердце.avi</div>
<div class="sp-body">Общее
Полное имя : Загадки острова Клиппертон. 1. Коралловое сердце.avi
Формат : AVI
Формат/Информация : Audio Video Interleave
Размер файла : 305 Мбайт
Продолжительность : 26 м.
Общий поток : 1606 Кбит/сек
Программа кодирования : VirtualDubMod 1.5.10.2 (build 2542/release)
Библиотека кодирования : VirtualDubMod build 2542/release

Видео
Идентификатор : 0
Формат : MPEG-4 Visual
Параметр BVOP формата : Нет
Параметр QPel формата : Нет
Параметр GMC формата : Без точки перехода
Параметр матрицы формата : Default (H.263)
Идентификатор кодека : DX50
Идентификатор кодека/Подсказка : DivX 5
Продолжительность : 26 м.
Битрейт : 1500 Кбит/сек
Ширина : 640 пикселей
Высота : 352 пикселя
Соотношение сторон : 5:4
Соотношение сторон в оригинале : 16:9
Частота кадров : 25,000 кадров/сек
Цветовое пространство : YUV
Субдискретизация насыщенности : 4:2:0
Битовая глубина : 8 бит
Тип развёртки : Прогрессивная
Метод сжатия : С потерями
Бит/(Пиксели*Кадры) : 0.266
Размер потока : 284 Мбайт (93%)
Библиотека кодирования : DivX 5.2.1 (DrDivX 106) (UTC 2004-09-08)

Аудио
Идентификатор : 1
Формат : MPEG Audio
Версия формата : Version 1
Профиль формата : Layer 3
Идентификатор кодека : 55
Идентификатор кодека/Подсказка : MP3
Продолжительность : 26 м.
Вид битрейта : Постоянный
Битрейт : 96,0 Кбит/сек
Каналы : 1 канал
Частота : 48,0 КГц
Метод сжатия : С потерями
Размер потока : 18,2 Мбайт (6%)
Выравнивание : Разделение по промежуткам
Продолжительность промежутка : 40 мс. (1,00 видеокадр)
Время предзагрузки промежутка : 500 мс.
Общее
Полное имя : Загадки острова Клиппертон. 2. Оранжевая армия.avi
Формат : AVI
Формат/Информация : Audio Video Interleave
Размер файла : 298 Мбайт
Продолжительность : 25 м.
Общий поток : 1606 Кбит/сек
Программа кодирования : VirtualDubMod 1.5.10.2 (build 2542/release)
Библиотека кодирования : VirtualDubMod build 2542/release

Видео
Идентификатор : 0
Формат : MPEG-4 Visual
Параметр BVOP формата : Нет
Параметр QPel формата : Нет
Параметр GMC формата : Без точки перехода
Параметр матрицы формата : Default (H.263)
Идентификатор кодека : DX50
Идентификатор кодека/Подсказка : DivX 5
Продолжительность : 25 м.
Битрейт : 1501 Кбит/сек
Ширина : 640 пикселей
Высота : 352 пикселя
Соотношение сторон : 5:4
Соотношение сторон в оригинале : 16:9
Частота кадров : 25,000 кадров/сек
Цветовое пространство : YUV
Субдискретизация насыщенности : 4:2:0
Битовая глубина : 8 бит
Тип развёртки : Прогрессивная
Метод сжатия : С потерями
Бит/(Пиксели*Кадры) : 0.266
Размер потока : 279 Мбайт (93%)
Библиотека кодирования : DivX 5.2.1 (DrDivX 106) (UTC 2004-09-08)

Аудио
Идентификатор : 1
Формат : MPEG Audio
Версия формата : Version 1
Профиль формата : Layer 3
Идентификатор кодека : 55
Идентификатор кодека/Подсказка : MP3
Продолжительность : 25 м.
Вид битрейта : Постоянный
Битрейт : 96,0 Кбит/сек
Каналы : 1 канал
Частота : 48,0 КГц
Метод сжатия : С потерями
Размер потока : 17,8 Мбайт (6%)
Выравнивание : Разделение по промежуткам
Продолжительность промежутка : 40 мс. (1,00 видеокадр)
Время предзагрузки промежутка : 500 мс.
Общее
Полное имя : Загадки острова Клиппертон. 3. Остров олуш.avi
Формат : AVI
Формат/Информация : Audio Video Interleave
Размер файла : 309 Мбайт
Продолжительность : 26 м.
Общий поток : 1605 Кбит/сек
Программа кодирования : VirtualDubMod 1.5.10.2 (build 2542/release)
Библиотека кодирования : VirtualDubMod build 2542/release

Видео
Идентификатор : 0
Формат : MPEG-4 Visual
Параметр BVOP формата : Нет
Параметр QPel формата : Нет
Параметр GMC формата : Без точки перехода
Параметр матрицы формата : Default (H.263)
Идентификатор кодека : DX50
Идентификатор кодека/Подсказка : DivX 5
Продолжительность : 26 м.
Битрейт : 1500 Кбит/сек
Ширина : 640 пикселей
Высота : 352 пикселя
Соотношение сторон : 5:4
Соотношение сторон в оригинале : 16:9
Частота кадров : 25,000 кадров/сек
Цветовое пространство : YUV
Субдискретизация насыщенности : 4:2:0
Битовая глубина : 8 бит
Тип развёртки : Прогрессивная
Метод сжатия : С потерями
Бит/(Пиксели*Кадры) : 0.266
Размер потока : 289 Мбайт (93%)
Библиотека кодирования : DivX 5.2.1 (DrDivX 106) (UTC 2004-09-08)

Аудио
Идентификатор : 1
Формат : MPEG Audio
Версия формата : Version 1
Профиль формата : Layer 3
Идентификатор кодека : 55
Идентификатор кодека/Подсказка : MP3
Продолжительность : 26 м.
Вид битрейта : Постоянный
Битрейт : 96,0 Кбит/сек
Каналы : 1 канал
Частота : 48,0 КГц
Метод сжатия : С потерями
Размер потока : 18,5 Мбайт (6%)
Выравнивание : Разделение по промежуткам
Продолжительность промежутка : 40 мс. (1,00 видеокадр)
Время предзагрузки промежутка : 500 мс.
</div>
</div>
<img class="smile" src="//static.t-ru.org/smiles/icon_exclaim.gif" alt=""> Внимание! Торрент-файл перезалит 08.09.2017 без изменения содержимого раздачи в связи с просьбой администрации снять флаг «приватная раздача». Скачавшим ранее просьба перекачать торрент-файл, перехешировать содержимое и присоединиться к раздаче.

Трекер:  [ 08-Сен-2017 03:12 ]

  

Скачать .torrent

Размер .torrent файла 19 KB


Размер: 1.76 GB
Хэш (hash) релиза: 5a18e4fc3d99f0a1d9f588797fb68e1537477b04
Подписка на обновления:

Еще никто не оставлял запись к записи скачать торрент Загадки острова Клиппертон Planete Clipperton . Будь первым!

!Обратная связь