Скачать через торрент Призрак в доспехах в 3Д Ghost in the Shell 3D Фильм бесплатно в хорошем качестве torrent

Скачивайте на UnionPeer.org фильмы через торрент без регистрации. Новинки кино в хорошем качестве через торрент. На UnionPeer.org можно скачать через торрент фильмы 2014 и 2015 годов. Самые новые фильмы.

Скачать торрент Призрак в доспехах в 3Д Ghost in the Shell 3D бесплатно через .torrent фильм мультфильм сериал

Если у вас наблюдаются проблемы со скриншотами, переходом по ссылками, скачиванием торрентов - проблемы в блокировщике рекламы AdBlock. #хорошегоДня!


Статистика раздачи
Размер:  8.57 GB   |    Зарегистрирован:  2 месяца 17 дней   |    .torrent скачан:  133 раза   |   
Раздают:  1  
   
Загрузка...
 
Автор Сообщение

Galfimbul

avatar Galfimbul


Призрак в доспехах
Ghost in the Shell
Год выпуска: 2017
Страна: США, Индия, Китай, Япония, Гонконг, Великобритания, Новая Зеландия, Канада, Австралия (Paramount Pictures, DreamWorks Pictures, Reliance Entertainment, Shanghai Film Group, Huahua Media)
Жанр: Фантастика, Боевик, Триллер, Драма, Криминал, Детектив
Продолжительность: 01:46:57

Перевод: Профессиональный дублированный (лицензия)

Режиссер: Руперт Сандерс / Rupert SandersРоли исполняли (дублировали):



Major - Скарлетт Йоханссон (Татьяна Шитова)
Batou - Йохан Филип Асбек (Владимир Тягичев)
Aramaki - Такеши Китано
Dr. Ouelet - Жюльет Бинош (Нина Тобилевич)
Kuze - Майкл Питт (Сергей Смирнов)
Togusa - Чин Хань (Андрей Мишутин)
Ladriya - Дануся Самал (Карина Фадеева)
Ishikawa - Ласарус Ратуэре (Дмитрий Поляновский)
Saito - Ютака Идзумихара
Borma - Таванда Маниймо
Cutter - Питер Фердинандо (Дмитрий Полонский)
Dr. Dahlin - Анамария Маринка (Рамиля Искандер)
Skinny Man - Дэниэл Хеншэлл (Александр Дасевич)Описание: Кибер-технологии подчинили себе все сферы жизни, а самые опасные преступники переместились в виртуальное пространство. Киборг-гибрид, стоящий во главе элитного подразделения полиции, идет по следу могущественного хакера.Премьера: 16 марта 2017 (30 марта 2017)
Релиз на Blu-Ray (DVD) (Россия): 31 июля 2017
Бюджет: $110 000 000
Кассовые сборы: $169 801 921
. .
Изначально планировалось, что главную роль исполнит Марго Робби, но она отказалась. В итоге роль отдали Скарлетт Йоханссон.
Сэм Райли претендовал на роль, которую получил Майкл Питт.
Маттиас Шонартс мог сыграть Бато.
Фильм снимался преимущественно в Веллингтоне (Новая Зеландия), а также в Гонконге и Шанхае.
Большую часть мужских костюмов сшила компания Rembrandt – последний и старейший изготовитель костюмов в Новой Зеландии.
Качество: BDRip (by Ash61)
Контейнер: MKV
Формат 3D: Half OverUnder / Вертикальная анаморфная стереопара
Порядок ракурсов: левый ракурс первыйВидео: AVC / 1920х1080p / 23,976 fps / 9770 Kbps

Аудио:
#1 - Русский / AC3 / 48 KHz / 5.1 ch / 640 Kbps (Дубляж - BD CEE)
#2 - Украинский / AC3 / 48 KHz / 2 ch / 192 Kbps (Дубляж - iTunes)
#3 - Английский / AC3 / 48 KHz / 5.1 ch / 640 Kbps (Original - BD 3D)

Субтитры (SRT):
Вшитые (softsub):
#1 - Русские Форсированные (iTunes) (включены по умолчанию)
#2 - Русские Полные (iTunes)
#3 - Украинские Форсированные (iTunes)
#4 - Украинские Полные (iTunes)
#5 - English Full
#6 - English SDH

Внешние (UTF-8):
#1 - Русские Форсированные (iTunes) (включены по умолчанию)
#2 - Русские Полные (iTunes)
#3 - Украинские Форсированные (iTunes)
General
Unique ID : 233126180946540435228088640724144426078 (0xAF6278221D83494AA4F7ED0126330C5E)
Complete name : E:\GhostInTheShell(2017)3D-halfOU(Ash61)\GhostInTheShell(2017)3D-halfOU(Ash61).mkv
Format : Matroska
Format version : Version 2
File size : 8.57 GiB
Duration : 1h 46mn
Overall bit rate : 11.5 Mbps
Movie name : Призрак в доспехах / Ghost in the Shell (2017) в 3Д
Encoded date : UTC 2017-07-24 11:57:43
Writing application : mkvmerge v5.8.0 ('No Sleep / Pillow') built on Sep 2 2012 15:37:04
Writing library : libebml v1.2.3 + libmatroska v1.3.0

Video
ID : 1
Format : AVC
Format/Info : Advanced Video Codec
Format profile : High@L4.1
Format settings, CABAC : Yes
Format settings, ReFrames : 4 frames
Codec ID : V_MPEG4/ISO/AVC
Duration : 1h 46mn
Bit rate : 9 770 Kbps
Width : 1 920 pixels
Height : 1 080 pixels
Display aspect ratio : 16:9
Frame rate mode : Constant
Frame rate : 23.976 fps
Color space : YUV
Chroma subsampling : 4:2:0
Bit depth : 8 bits
Scan type : Progressive
Bits/(Pixel*Frame) : 0.197
Stream size : 7.30 GiB (85%)
Title : BDRip by Ash61
Writing library : x264 core 146 r2538 121396c
Encoding settings : cabac=1 / ref=4 / deblock=1:-3:-3 / analyse=0x3:0x113 / me=umh / subme=10 / psy=1 / psy_rd=1.00:0.00 / mixed_ref=1 / me_range=32 / chroma_me=1 / trellis=2 / 8x8dct=1 / cqm=0 / deadzone=21,11 / fast_pskip=1 / chroma_qp_offset=-2 / threads=12 / lookahead_threads=3 / sliced_threads=0 / nr=0 / decimate=1 / interlaced=0 / bluray_compat=0 / constrained_intra=0 / bframes=12 / b_pyramid=2 / b_adapt=2 / b_bias=0 / direct=3 / weightb=1 / open_gop=0 / weightp=2 / keyint=250 / keyint_min=23 / scenecut=40 / intra_refresh=0 / rc_lookahead=60 / rc=crf / mbtree=0 / crf=16.5 / qcomp=0.70 / qpmin=0 / qpmax=69 / qpstep=4 / vbv_maxrate=40000 / vbv_bufsize=30000 / crf_max=0.0 / nal_hrd=none / filler=0 / frame-packing=4 / ip_ratio=1.40 / pb_ratio=1.30 / aq=1:0.70
Language : English
Default : Yes
Forced : No

Audio #1
ID : 2
Format : AC-3
Format/Info : Audio Coding 3
Mode extension : CM (complete main)
Format settings, Endianness : Big
Codec ID : A_AC3
Duration : 1h 46mn
Bit rate mode : Constant
Bit rate : 640 Kbps
Channel(s) : 6 channels
Channel positions : Front: L C R, Side: L R, LFE
Sampling rate : 48.0 KHz
Bit depth : 16 bits
Compression mode : Lossy
Stream size : 490 MiB (6%)
Title : Дубляж - BD CEE
Language : Russian
Default : Yes
Forced : No

Audio #2
ID : 3
Format : AC-3
Format/Info : Audio Coding 3
Mode extension : CM (complete main)
Format settings, Endianness : Big
Codec ID : A_AC3
Duration : 1h 46mn
Bit rate mode : Constant
Bit rate : 192 Kbps
Channel(s) : 2 channels
Channel positions : Front: L R
Sampling rate : 48.0 KHz
Bit depth : 16 bits
Compression mode : Lossy
Stream size : 147 MiB (2%)
Title : Дубляж - iTunes
Language : Ukrainian
Default : No
Forced : No

Audio #3
ID : 4
Format : AC-3
Format/Info : Audio Coding 3
Mode extension : CM (complete main)
Format settings, Endianness : Big
Codec ID : A_AC3
Duration : 1h 46mn
Bit rate mode : Constant
Bit rate : 640 Kbps
Channel(s) : 6 channels
Channel positions : Front: L C R, Side: L R, LFE
Sampling rate : 48.0 KHz
Bit depth : 16 bits
Compression mode : Lossy
Stream size : 490 MiB (6%)
Title : Original
Language : English
Default : No
Forced : No

Text #1
ID : 5
Format : UTF-8
Codec ID : S_TEXT/UTF8
Codec ID/Info : UTF-8 Plain Text
Title : Форсированные (iTunes)
Language : Russian
Default : Yes
Forced : No

Text #2
ID : 6
Format : UTF-8
Codec ID : S_TEXT/UTF8
Codec ID/Info : UTF-8 Plain Text
Title : Полные (iTunes)
Language : Russian
Default : No
Forced : No

Text #3
ID : 7
Format : UTF-8
Codec ID : S_TEXT/UTF8
Codec ID/Info : UTF-8 Plain Text
Title : Форсированные (iTunes)
Language : Ukrainian
Default : No
Forced : No

Text #4
ID : 8
Format : UTF-8
Codec ID : S_TEXT/UTF8
Codec ID/Info : UTF-8 Plain Text
Title : Полные (iTunes)
Language : Ukrainian
Default : No
Forced : No

Text #5
ID : 9
Format : UTF-8
Codec ID : S_TEXT/UTF8
Codec ID/Info : UTF-8 Plain Text
Title : Full
Language : English
Default : No
Forced : No

Text #6
ID : 10
Format : UTF-8
Codec ID : S_TEXT/UTF8
Codec ID/Info : UTF-8 Plain Text
Title : SDH
Language : English
Default : No
Forced : No

Menu
00:00:00.000 : :1
00:08:09.322 : :2
00:14:39.961 : :3
00:21:26.492 : :4
00:28:02.681 : :5
00:34:13.217 : :6
00:39:27.614 : :7
00:43:57.800 : :8
00:51:49.815 : :9
00:55:19.065 : :10
01:01:06.871 : :11
01:07:49.731 : :12
01:14:36.971 : :13
01:20:31.743 : :14
01:27:46.176 : :15
01:33:41.407 : :16
01:38:00.082 : :17


Трекер:  [ 08-Сен-2017 01:01 ]

  

Скачать .torrent

Размер .torrent файла 43 KB


Размер: 8.57 GB
Хэш (hash) релиза: f980e95436d72c032795d3a721d9f3e0aa6ab23c
Подписка на обновления:

Еще никто не оставлял запись к записи скачать торрент Призрак в доспехах в 3Д Ghost in the Shell 3D . Будь первым!

!Обратная связь