Скачать через торрент Балерина в 3Д Ballerina 3D Фильм бесплатно в хорошем качестве torrent

Скачивайте на UnionPeer.org фильмы через торрент без регистрации. Новинки кино в хорошем качестве через торрент. На UnionPeer.org можно скачать через торрент фильмы 2014 и 2015 годов. Самые новые фильмы.

Скачать торрент Балерина в 3Д Ballerina 3D бесплатно через .torrent фильм мультфильм сериал

Если у вас наблюдаются проблемы со скриншотами, переходом по ссылками, скачиванием торрентов - проблемы в блокировщике рекламы AdBlock. #хорошегоДня!


Статистика раздачи
Размер:  5.16 GB   |    Зарегистрирован:  2 месяца 12 дней   |    .torrent скачан:  40 раз   |   
Раздают:  1  
   
Загрузка...
 
Автор Сообщение

Galfimbul

avatar Galfimbul


Балерина
Ballerina
«Никогда не отказывайся от своей мечты»
Год выпуска: 2016
Страна: Канада, Франция (A Contracorriente Films, Gaumont, L'Atelier Animation, Quad, Main Journey, Caramel Films, M6 Films...)
Жанр: Мультфильм, Мюзикл, Комедия, Приключения, Семейный
Продолжительность: 01:29:24

Перевод: Профессиональный дублированный - iTunes

Режиссеры: Эрик Саммер, Эрик Уорин / Eric Summer, Éric WarinРоли озвучивали на английском (дублировали):

............. .............

Felicie - Эль Фаннинг (Анастасия Жаркова)
Victor - Дэйн ДеХаан
Odette - Карли Рэй Джепсен (Илзе Лиепа)
Camille - Мэдди Зиглер
Mérante / Postman - Терренс Скаммелл (Василий Дахненко)
Rudolph / Mathurin - Тамир Капелян
Regine - Джули Ханер
Director of Opera - Джо Шеридан
Dora / Rosita - Элана Дункельман
Nora - Шошана Спелинг (Анна Котова)Описание: События развернутся вокруг маленькой сиротки, которая, следуя за мечтой стать балериной, приезжает в Париж в 1879 году.Премьера: 19 октября 2016 (26 января 2017)
Бюджет: $30 000 000
. . Качество: BDRip (by Ash61 с BD 3D Spa)
Контейнер: MKV
Формат 3D: Half OverUnder / Вертикальная анаморфная стереопара
Порядок ракурсов: левый ракурс первыйВидео: AVC / 1920х1080p / 23,976 fps / 6698 Kbps

Аудио:
#1 - Русский / AC3 / 48 KHz / 5.1 ch / 384 Kbps (Дубляж - iTunes)
#2 - Украинский / AC3 / 48 KHz / 5.1 ch / 384 Kbps (Дубляж - iTunes) (за исходник cпасибо Hurtom!)
#3 - Английский / AC3 / 48 KHz / 5.1 ch / 640 Kbps (Original - BD 3D)

Субтитры (внешние SRT UTF-8):
#1 - English Full
#2 - English SDH
General
Unique ID : 201704162737636176536612079657978923657 (0x97BECF06770578D9AEC3A664A7738A89)
Complete name : E:\Ballerina(2016)3D-halfOU(Ash61)iTunes\Ballerina(2016)3D-halfOU(Ash61)iTunes.mkv
Format : Matroska
Format version : Version 2
File size : 5.16 GiB
Duration : 1h 29mn
Overall bit rate : 8 271 Kbps
Movie name : Балерина / Ballerina (2016) в 3Д
Encoded date : UTC 2017-06-17 14:15:17
Writing application : mkvmerge v5.8.0 ('No Sleep / Pillow') built on Sep 2 2012 15:37:04
Writing library : libebml v1.2.3 + libmatroska v1.3.0

Video
ID : 1
Format : AVC
Format/Info : Advanced Video Codec
Format profile : High@L4.1
Format settings, CABAC : Yes
Format settings, ReFrames : 4 frames
Codec ID : V_MPEG4/ISO/AVC
Duration : 1h 29mn
Bit rate : 6 698 Kbps
Width : 1 920 pixels
Height : 1 080 pixels
Display aspect ratio : 16:9
Frame rate mode : Constant
Frame rate : 23.976 fps
Color space : YUV
Chroma subsampling : 4:2:0
Bit depth : 8 bits
Scan type : Progressive
Bits/(Pixel*Frame) : 0.135
Stream size : 4.18 GiB (81%)
Title : BDRip by Ash61 (с BD 3D Spa)
Writing library : x264 core 146 r2538 121396c
Encoding settings : cabac=1 / ref=4 / deblock=1:-3:-3 / analyse=0x3:0x113 / me=umh / subme=10 / psy=1 / psy_rd=1.00:0.00 / mixed_ref=1 / me_range=32 / chroma_me=1 / trellis=2 / 8x8dct=1 / cqm=0 / deadzone=21,11 / fast_pskip=1 / chroma_qp_offset=-2 / threads=12 / lookahead_threads=2 / sliced_threads=0 / nr=0 / decimate=1 / interlaced=0 / bluray_compat=0 / constrained_intra=0 / bframes=8 / b_pyramid=2 / b_adapt=2 / b_bias=0 / direct=3 / weightb=1 / open_gop=0 / weightp=2 / keyint=250 / keyint_min=23 / scenecut=40 / intra_refresh=0 / rc_lookahead=60 / rc=crf / mbtree=0 / crf=16.5 / qcomp=0.70 / qpmin=0 / qpmax=69 / qpstep=4 / vbv_maxrate=40000 / vbv_bufsize=30000 / crf_max=0.0 / nal_hrd=none / filler=0 / frame-packing=4 / ip_ratio=1.40 / pb_ratio=1.30 / aq=1:0.70
Language : French
Default : Yes
Forced : No

Audio #1
ID : 2
Format : AC-3
Format/Info : Audio Coding 3
Mode extension : CM (complete main)
Format settings, Endianness : Big
Codec ID : A_AC3
Duration : 1h 29mn
Bit rate mode : Constant
Bit rate : 384 Kbps
Channel(s) : 6 channels
Channel positions : Front: L C R, Side: L R, LFE
Sampling rate : 48.0 KHz
Bit depth : 16 bits
Compression mode : Lossy
Stream size : 246 MiB (5%)
Title : Дубляж - iTunes
Language : Russian
Default : Yes
Forced : No

Audio #2
ID : 3
Format : AC-3
Format/Info : Audio Coding 3
Mode extension : CM (complete main)
Format settings, Endianness : Big
Codec ID : A_AC3
Duration : 1h 29mn
Bit rate mode : Constant
Bit rate : 384 Kbps
Channel(s) : 6 channels
Channel positions : Front: L C R, Side: L R, LFE
Sampling rate : 48.0 KHz
Bit depth : 16 bits
Compression mode : Lossy
Stream size : 246 MiB (5%)
Title : Дубляж - iTunes
Language : Ukrainian
Default : No
Forced : No

Audio #3
ID : 4
Format : AC-3
Format/Info : Audio Coding 3
Mode extension : CM (complete main)
Format settings, Endianness : Big
Codec ID : A_AC3
Duration : 1h 29mn
Bit rate mode : Constant
Bit rate : 640 Kbps
Channel(s) : 6 channels
Channel positions : Front: L C R, Side: L R, LFE
Sampling rate : 48.0 KHz
Bit depth : 16 bits
Compression mode : Lossy
Stream size : 409 MiB (8%)
Language : English
Default : No
Forced : No


Трекер:  [ 08-Сен-2017 00:30 ]

  

Скачать .torrent

Размер .torrent файла 26 KB


Размер: 5.16 GB
Хэш (hash) релиза: e73fdceca6bf5e7617653fe224ac07bb10db7abb
Подписка на обновления:

Еще никто не оставлял запись к записи скачать торрент Балерина в 3Д Ballerina 3D . Будь первым!

!Обратная связь