Скачать через торрент Смурфики: Затерянная деревня в 3Д Smurfs: The Lost Village 3D Фильм бесплатно в хорошем качестве torrent

Скачивайте на UnionPeer.org фильмы через торрент без регистрации. Новинки кино в хорошем качестве через торрент. На UnionPeer.org можно скачать через торрент фильмы 2014 и 2015 годов. Самые новые фильмы.

Скачать торрент Смурфики: Затерянная деревня в 3Д Smurfs: The Lost Village 3D бесплатно через .torrent фильм мультфильм сериал

Если у вас наблюдаются проблемы со скриншотами, переходом по ссылками, скачиванием торрентов - проблемы в блокировщике рекламы AdBlock. #хорошегоДня!


Статистика раздачи
Размер:  9.32 GB   |    Зарегистрирован:  13 дней   |    .torrent скачан:  9 раз   |   
Раздают:  2  
   
Загрузка...
 
Автор Сообщение

Galfimbul

avatar Galfimbul


Смурфики: Затерянная деревня
Smurfs: The Lost Village
«Кто здесь?»
Год выпуска: 2017
Страна: США (Columbia Pictures, Sony Pictures Animation, Kerner Entertainment Company, LStar Capital, WanDa Pictures)
Жанр: Мультфильм, Фэнтези, Комедия, Приключения, Семейный
Продолжительность: 01:29:46

Перевод: Профессиональный дублированный - iTunes

Режиссер: Келли Эсбёри / Kelly AsburyРоли озвучивали (дублировали):



Смурфлилия - Ариэль Уинтер (Наталья Османн)
Силач - Джо Манганьелло (Николай Валуев)
Смурфгроза - Мишель Родригес (Ольга Шелест)
Смурфива - Джулия Робертс (Елена Шульман)
Смурфоцветик - Элли Кемпер (Алла Михеева)
Папа Смурф - Мэнди Пэтинкин (Алексей Войтюк)
Гаргамель - Рэйн Уилсон (Вадим Медведев)
Смурфетта - Деми Ловато (Софья Ануфриева)
Ворчун - Джейк Джонсон
Растяпа - Джек МакБрайер (Антон Эльдаров)
Умник - Дэнни Пуди (Диомид Виноградов)

Описание: Смурфетта и её лучшие друзья Умник, Растяпа и Силач, отправляются на поиски таинственной затерянной деревни, стремясь опередить злобного волшебника Гаргамеля. В пути смурфиков ожидают невероятные опасности и головокружительные приключения, но игра стоит свеч, ведь в конечном итоге герои смогут разгадать самую большую загадку в истории своего существования!

Премьера: 23 марта 2017 (30 марта 2017)
Бюджет: $60 000 000
Кассовые сборы: $194 697 825
. .
Этот фильм является перезапуском кинофраншизы «Смурфики», выполненным полностью при помощи компьютерной анимации, а не художественный фильм с другим актёрским составом. Решение сделать фильм таким было принято после провала в прокате фильма «Смурфики 2» (Раджа Госнелл, 2013) и смерти Джонатана Уинтерса (1925-2013), который озвучил в нём Папу Смурфа.
Пекаря Смурфа озвучивает Гордон Рамзи, знаменитый британский шеф-повар и ведущий британских телешоу и их американских аналогов.
На роль Папы Смурфа рассматривался Джон Гудман, однако в итоге роль досталась Мэнди Пэтинкину.
Первоначально проект носил название «Get Smurfy».
Фильм планировали выпустить еще в августе 2015 года, однако в итоге дата релиза была перенесена на конец марта 2017 года.
В предыдущих двух фильмах Смурфетту озвучивала американская певица Кэти Перри. В этом фильме Смурфетту также озвучила американская певица – Деми Ловато.
Это первый анимационный фильм Рэйна Уилсона после картины «Монстры против пришельцев» (2009), в которой он также озвучивал злодея.
Джо Манганьелло озвучил в этом фильме Силача. Его жена, София Вергара, принимала участие в фильме «Смурфики» (2011).
Качество: BDRip (by Ash61)
Контейнер: MKV
Формат 3D: Half OverUnder / Вертикальная анаморфная стереопара
Порядок ракурсов: левый ракурс первыйВидео: AVC / 1920х1080p / 23,976 fps / 13.4 Mbps

Аудио:
#1 - Русский / AC3 / 48 KHz / 5.1 ch / 384 Kbps (Дубляж - iTunes)
#2 - Украинский / AC3 / 48 KHz / 2 ch / 192 Kbps (Дубляж - iTunes)
#3 - Английский / AC3 / 48 KHz / 5.1 ch / 640 Kbps (Original - BD 3D)

Субтитры (SRT):
Вшитые (softsub):
#1 - Русские Форсированные (включены по умолчанию)
#2 - Русские Полные
#3 - Украинские Форсированные
#4 - Украинские Полные
#5 - English Full

Внешние (UTF-8):
#1 - Русские Форсированные (включены по умолчанию)
#2 - Русские Полные
#3 - Украинские Форсированные
General
Unique ID : 190487453648465293485996487889373504137 (0x8F4E8C91E4DBFCE7A9A6557E8BAA2289)
Complete name : E:\Smurfs.TheLostVillage(2017)3D-halfOU(Ash61)iTunes\Smurfs.TheLostVillage(2017)3D-halfOU(Ash61)iTunes.mkv
Format : Matroska
Format version : Version 2
File size : 9.32 GiB
Duration : 1h 29mn
Overall bit rate : 14.9 Mbps
Movie name : Смурфики: Затерянная деревня / Smurfs: The Lost Village (2017) в 3Д
Encoded date : UTC 2017-07-07 18:34:00
Writing application : mkvmerge v5.8.0 ('No Sleep / Pillow') built on Sep 2 2012 15:37:04
Writing library : libebml v1.2.3 + libmatroska v1.3.0

Video
ID : 1
Format : AVC
Format/Info : Advanced Video Codec
Format profile : High@L4.1
Format settings, CABAC : Yes
Format settings, ReFrames : 4 frames
Codec ID : V_MPEG4/ISO/AVC
Duration : 1h 29mn
Bit rate : 13.4 Mbps
Width : 1 920 pixels
Height : 1 080 pixels
Display aspect ratio : 16:9
Frame rate mode : Constant
Frame rate : 23.976 fps
Color space : YUV
Chroma subsampling : 4:2:0
Bit depth : 8 bits
Scan type : Progressive
Bits/(Pixel*Frame) : 0.269
Stream size : 8.37 GiB (90%)
Title : BDRip by Ash61
Writing library : x264 core 146 r2538 121396c
Encoding settings : cabac=1 / ref=4 / deblock=1:-3:-3 / analyse=0x3:0x113 / me=umh / subme=10 / psy=1 / psy_rd=1.00:0.00 / mixed_ref=1 / me_range=32 / chroma_me=1 / trellis=2 / 8x8dct=1 / cqm=0 / deadzone=21,11 / fast_pskip=1 / chroma_qp_offset=-2 / threads=12 / lookahead_threads=2 / sliced_threads=0 / nr=0 / decimate=1 / interlaced=0 / bluray_compat=0 / constrained_intra=0 / bframes=8 / b_pyramid=2 / b_adapt=2 / b_bias=0 / direct=3 / weightb=1 / open_gop=0 / weightp=2 / keyint=250 / keyint_min=23 / scenecut=40 / intra_refresh=0 / rc_lookahead=60 / rc=crf / mbtree=0 / crf=15.7 / qcomp=0.70 / qpmin=0 / qpmax=69 / qpstep=4 / vbv_maxrate=40000 / vbv_bufsize=30000 / crf_max=0.0 / nal_hrd=none / filler=0 / frame-packing=4 / ip_ratio=1.40 / pb_ratio=1.30 / aq=1:0.70
Language : English
Default : Yes
Forced : No

Audio #1
ID : 2
Format : AC-3
Format/Info : Audio Coding 3
Mode extension : CM (complete main)
Format settings, Endianness : Big
Codec ID : A_AC3
Duration : 1h 29mn
Bit rate mode : Constant
Bit rate : 384 Kbps
Channel(s) : 6 channels
Channel positions : Front: L C R, Side: L R, LFE
Sampling rate : 48.0 KHz
Bit depth : 16 bits
Compression mode : Lossy
Stream size : 247 MiB (3%)
Title : Дубляж - iTunes
Language : Russian
Default : Yes
Forced : No

Audio #2
ID : 3
Format : AC-3
Format/Info : Audio Coding 3
Mode extension : CM (complete main)
Format settings, Endianness : Big
Codec ID : A_AC3
Duration : 1h 29mn
Bit rate mode : Constant
Bit rate : 192 Kbps
Channel(s) : 2 channels
Channel positions : Front: L R
Sampling rate : 48.0 KHz
Bit depth : 16 bits
Compression mode : Lossy
Stream size : 123 MiB (1%)
Title : Дубляж - iTunes
Language : Ukrainian
Default : No
Forced : No

Audio #3
ID : 4
Format : AC-3
Format/Info : Audio Coding 3
Mode extension : CM (complete main)
Format settings, Endianness : Big
Codec ID : A_AC3
Duration : 1h 29mn
Bit rate mode : Constant
Bit rate : 640 Kbps
Channel(s) : 6 channels
Channel positions : Front: L C R, Side: L R, LFE
Sampling rate : 48.0 KHz
Bit depth : 16 bits
Compression mode : Lossy
Stream size : 411 MiB (4%)
Title : Original
Language : English
Default : No
Forced : No

Text #1
ID : 5
Format : UTF-8
Codec ID : S_TEXT/UTF8
Codec ID/Info : UTF-8 Plain Text
Title : Форсированные
Language : Russian
Default : Yes
Forced : No

Text #2
ID : 6
Format : UTF-8
Codec ID : S_TEXT/UTF8
Codec ID/Info : UTF-8 Plain Text
Title : Полные
Language : Russian
Default : No
Forced : No

Text #3
ID : 7
Format : UTF-8
Codec ID : S_TEXT/UTF8
Codec ID/Info : UTF-8 Plain Text
Title : Форсированные
Language : Ukrainian
Default : No
Forced : No

Text #4
ID : 8
Format : UTF-8
Codec ID : S_TEXT/UTF8
Codec ID/Info : UTF-8 Plain Text
Title : Полные
Language : Ukrainian
Default : No
Forced : No

Text #5
ID : 9
Format : UTF-8
Codec ID : S_TEXT/UTF8
Codec ID/Info : UTF-8 Plain Text
Title : Full
Language : English
Default : No
Forced : No

Menu
00:00:00.000 : :1
00:08:48.445 : :2
00:11:03.413 : :3
00:14:33.748 : :4
00:21:21.069 : :5
00:27:25.143 : :6
00:30:33.538 : :7
00:36:49.081 : :8
00:42:41.349 : :9
00:45:58.672 : :10
00:50:35.949 : :11
00:57:03.585 : :12
01:02:35.293 : :13
01:09:07.769 : :14
01:14:39.475 : :15
01:19:34.478 : :16


Трекер:  [ 08-Сен-2017 00:30 ]

  

Скачать .torrent

Размер .torrent файла 47 KB


Размер: 9.32 GB
Хэш (hash) релиза: 9babd9a2ee0afd369d185fdccf0d8108687893b6
Подписка на обновления:

Торренты, похожие на Смурфики: Затерянная деревня в 3Д Smurfs: The Lost Village 3D скачать торрент

Форум Название Автор Размер S L Добавлен
3D Мультфильмы ·· Смурфики: Затерянная деревня в 3Д / Smurfs: The Lost Village 3D (Келли Эсбёри / Kelly Asbury) [2017, Мультфильм, Фэнтези, Комедия, Приключения, Семейны, BDrip, 1080p] OverUnder / Вертикальная стереопара Galfimbul 1241006384411.56 GB 0 0 1504818220

00:03

8-Сен-17

Еще никто не оставлял запись к записи скачать торрент Смурфики: Затерянная деревня в 3Д Smurfs: The Lost Village 3D . Будь первым!

!Обратная связь