Скачать через торрент Босс-молокосос в 3Д The Boss Baby 3D Фильм бесплатно в хорошем качестве torrent

Скачивайте на UnionPeer.org фильмы через торрент без регистрации. Новинки кино в хорошем качестве через торрент. На UnionPeer.org можно скачать через торрент фильмы 2014 и 2015 годов. Самые новые фильмы.

Скачать торрент Босс-молокосос в 3Д The Boss Baby 3D бесплатно через .torrent фильм мультфильм сериал

Если у вас наблюдаются проблемы со скриншотами, переходом по ссылками, скачиванием торрентов - проблемы в блокировщике рекламы AdBlock. #хорошегоДня!


Статистика раздачи
Размер:  6.45 GB   |    Зарегистрирован:  2 месяца 17 дней   |    .torrent скачан:  44 раза   |   
Раздают:  1  
   
Загрузка...
 
Автор Сообщение

Galfimbul

avatar Galfimbul


Босс-молокосос
The Boss Baby
«Прирождённый лидер»
Год выпуска: 2017
Страна: США (20th Century Fox, DreamWorks Animation SKG)
Жанр: Мультфильм, Комедия, Семейный
Продолжительность: 01:37:32

Перевод: Профессиональный дублированный (лицензия)

Режиссер: Том МакГрат / Tom McGrathРоли озвучивали (дублировали):

............. .............

Boss Baby - Алек Болдуин (Фёдор Бондарчук)
Tim - Майлз Кристофер Бакши (Дмитрий Семенов)
Adult Tim / рассказчик - Тоби Магуайр (Евгений Иванов)
Francis Francis - Стив Бушеми (Игорь Мосюк)
Dad - Джимми Киммел (Дмитрий Кошмин)
Mom - Лиза Кудроу (Юлия Левакова)
Eugene - Конрад Вернон (Давид Бродский)
Wizzie / Elvis Impersonator - Джеймс МакГрат (Вадим Никитин)
Jimbo - Дэвид Сорен (Александр Матвеев)
Staci - ВивиЭнн Йи (Полина Рудоманенко)Описание: Эта актуальная во все времена история для взрослых и детей рассказывается от лица семилетнего брата новорожденного — фантазера Тима, который ревнует его к родителям. Но главный герой — совсем не простой ребенок, он обладает лидерскими задатками, уже носит деловые костюмы и во всем видит бизнес-задачу.
Однажды Тим узнает о готовящемся заговоре, целью которого является уничтожение любви, и организовал его директор компании «Puppy Co». Но одному Тиму не по силам его остановить. Мальчику предстоит объединиться со своим «нелюбимым» братом, чтобы спасти родителей и вернуть порядок на Земле.

Премьера: 12 марта 2017 (23 марта 2017)
Бюджет: $125 000 000
Кассовые сборы: $496 815 196
. .
Первый трейлер к фильму вышел 16 октября в День Босса — профессиональный праздник руководителей всех уровней, от бригадира до президента.
Фраза Босса-молокососа «Печеньку на дорожку» пародирует знаменитую фразу Алека Болдуина из фильма «Гленгарри Глен Росс (Американцы)» (Джеймс Фоули, 1992) «Кофейку на посошок».
Рассказчиком в мультфильме выступает Тоби Магуайр, актёр, озвучивающий Тима в зрелом возрасте.
Качество: BDRip (by Ash61)
Контейнер: MKV
Формат 3D: Half OverUnder / Вертикальная анаморфная стереопара
Порядок ракурсов: левый ракурс первыйВидео: AVC / 1920х1080p / 23,976 fps / 7547 Kbps

Аудио:
#1 - Русский / AC3 / 48 KHz / 5.1 ch / 640 Kbps (Дубляж - BD Eur)
#2 - Украинский / AC3 / 48 KHz / 5.1 ch / 448 Kbps (Дубляж - BD Eur)
#3 - Английский / AC3 / 48 KHz / 5.1 ch / 640 Kbps (Original - BD 3D)

Субтитры (SRT):
Вшитые (softsub):
#1 - Русские Форсированные (включены по умолчанию)
#2 - Русские Полные
#3 - Украинские Форсированные
#4 - Украинские Полные
#5 - English Forced
#6 - English Full
#7 - English SDH

Внешние (UTF-8):
#1 - Русские Форсированные (включены по умолчанию)
#2 - Русские Полные
#3 - Украинские Форсированные
General
Unique ID : 200384693869022603774880011108027044842 (0x96C0B02FF79D0BEB85D8EB7ACD9193EA)
Complete name : E:\TheBossBaby(2017)3D-halfOU(Ash61)\TheBossBaby(2017)3D-halfOU(Ash61).mkv
Format : Matroska
Format version : Version 2
File size : 6.45 GiB
Duration : 1h 37mn
Overall bit rate : 9 463 Kbps
Movie name : Босс-молокосос / The Boss Baby (2017) в 3Д
Encoded date : UTC 2017-07-27 20:31:51
Writing application : mkvmerge v5.8.0 ('No Sleep / Pillow') built on Sep 2 2012 15:37:04
Writing library : libebml v1.2.3 + libmatroska v1.3.0

Video
ID : 1
Format : AVC
Format/Info : Advanced Video Codec
Format profile : High@L4.1
Format settings, CABAC : Yes
Format settings, ReFrames : 4 frames
Codec ID : V_MPEG4/ISO/AVC
Duration : 1h 37mn
Bit rate : 7 547 Kbps
Width : 1 920 pixels
Height : 1 080 pixels
Display aspect ratio : 16:9
Frame rate mode : Constant
Frame rate : 23.976 fps
Color space : YUV
Chroma subsampling : 4:2:0
Bit depth : 8 bits
Scan type : Progressive
Bits/(Pixel*Frame) : 0.152
Stream size : 5.14 GiB (80%)
Title : BDRip by Ash61
Writing library : x264 core 146 r2538 121396c
Encoding settings : cabac=1 / ref=4 / deblock=1:-3:-3 / analyse=0x3:0x113 / me=umh / subme=10 / psy=1 / psy_rd=1.00:0.00 / mixed_ref=1 / me_range=32 / chroma_me=1 / trellis=2 / 8x8dct=1 / cqm=0 / deadzone=21,11 / fast_pskip=1 / chroma_qp_offset=-2 / threads=12 / lookahead_threads=3 / sliced_threads=0 / nr=0 / decimate=1 / interlaced=0 / bluray_compat=0 / constrained_intra=0 / bframes=10 / b_pyramid=2 / b_adapt=2 / b_bias=0 / direct=3 / weightb=1 / open_gop=0 / weightp=2 / keyint=250 / keyint_min=23 / scenecut=40 / intra_refresh=0 / rc_lookahead=60 / rc=crf / mbtree=0 / crf=16.5 / qcomp=0.70 / qpmin=0 / qpmax=69 / qpstep=4 / vbv_maxrate=40000 / vbv_bufsize=30000 / crf_max=0.0 / nal_hrd=none / filler=0 / frame-packing=4 / ip_ratio=1.40 / pb_ratio=1.30 / aq=1:0.70
Language : English
Default : Yes
Forced : No

Audio #1
ID : 2
Format : AC-3
Format/Info : Audio Coding 3
Mode extension : CM (complete main)
Format settings, Endianness : Big
Codec ID : A_AC3
Duration : 1h 37mn
Bit rate mode : Constant
Bit rate : 640 Kbps
Channel(s) : 6 channels
Channel positions : Front: L C R, Side: L R, LFE
Sampling rate : 48.0 KHz
Bit depth : 16 bits
Compression mode : Lossy
Stream size : 446 MiB (7%)
Title : Дубляж - BD Eur
Language : Russian
Default : Yes
Forced : No

Audio #2
ID : 3
Format : AC-3
Format/Info : Audio Coding 3
Mode extension : CM (complete main)
Format settings, Endianness : Big
Codec ID : A_AC3
Duration : 1h 37mn
Bit rate mode : Constant
Bit rate : 448 Kbps
Channel(s) : 6 channels
Channel positions : Front: L C R, Side: L R, LFE
Sampling rate : 48.0 KHz
Bit depth : 16 bits
Compression mode : Lossy
Stream size : 313 MiB (5%)
Title : Дубляж - BD Eur
Language : Ukrainian
Default : No
Forced : No

Audio #3
ID : 4
Format : AC-3
Format/Info : Audio Coding 3
Mode extension : CM (complete main)
Format settings, Endianness : Big
Codec ID : A_AC3
Duration : 1h 37mn
Bit rate mode : Constant
Bit rate : 640 Kbps
Channel(s) : 6 channels
Channel positions : Front: L C R, Side: L R, LFE
Sampling rate : 48.0 KHz
Bit depth : 16 bits
Compression mode : Lossy
Stream size : 446 MiB (7%)
Title : Original - BD 3D
Language : English
Default : No
Forced : No

Text #1
ID : 5
Format : UTF-8
Codec ID : S_TEXT/UTF8
Codec ID/Info : UTF-8 Plain Text
Title : Форсированные
Language : Russian
Default : Yes
Forced : No

Text #2
ID : 6
Format : UTF-8
Codec ID : S_TEXT/UTF8
Codec ID/Info : UTF-8 Plain Text
Title : Полные
Language : Russian
Default : No
Forced : No

Text #3
ID : 7
Format : UTF-8
Codec ID : S_TEXT/UTF8
Codec ID/Info : UTF-8 Plain Text
Title : Форсированные
Language : Ukrainian
Default : No
Forced : No

Text #4
ID : 8
Format : UTF-8
Codec ID : S_TEXT/UTF8
Codec ID/Info : UTF-8 Plain Text
Title : Полные
Language : Ukrainian
Default : No
Forced : No

Text #5
ID : 9
Format : UTF-8
Codec ID : S_TEXT/UTF8
Codec ID/Info : UTF-8 Plain Text
Title : Forced
Language : English
Default : No
Forced : No

Text #6
ID : 10
Format : UTF-8
Codec ID : S_TEXT/UTF8
Codec ID/Info : UTF-8 Plain Text
Title : Full
Language : English
Default : No
Forced : No

Text #7
ID : 11
Format : UTF-8
Codec ID : S_TEXT/UTF8
Codec ID/Info : UTF-8 Plain Text
Title : SDH
Language : English
Default : No
Forced : No

Menu
00:00:00.000 : :1
00:03:45.891 : :2
00:08:58.287 : :3
00:11:45.913 : :4
00:14:59.565 : :5
00:19:38.218 : :6
00:22:52.788 : :7
00:28:27.247 : :8
00:30:26.115 : :9
00:33:45.480 : :10
00:36:57.255 : :11
00:39:18.356 : :12
00:42:35.344 : :13
00:46:20.610 : :14
00:51:37.719 : :15
00:53:25.284 : :16
00:56:28.717 : :17
00:59:35.405 : :18
01:04:03.172 : :19
01:08:15.757 : :20
01:11:29.909 : :21
01:16:25.247 : :22
01:23:10.109 : :23
01:27:36.960 : :24
27.07.2017. Релиз обновлён - русская и украинская дороги iTunes заменены на лицензионные.
Желающие, скачайте заново торрент-файл.


Трекер:  [ 08-Сен-2017 00:30 ]

  

Скачать .torrent

Размер .torrent файла 33 KB


Размер: 6.45 GB
Хэш (hash) релиза: a70665fb77b5a77c0a2d88aabd5c0063380275a2
Подписка на обновления:

Еще никто не оставлял запись к записи скачать торрент Босс-молокосос в 3Д The Boss Baby 3D . Будь первым!

!Обратная связь