Скачать через торрент Босс-молокосос в 3Д The Boss Baby 3D Фильм бесплатно в хорошем качестве torrent

Скачивайте на UnionPeer.org фильмы через торрент без регистрации. Новинки кино в хорошем качестве через торрент. На UnionPeer.org можно скачать через торрент фильмы 2014 и 2015 годов. Самые новые фильмы.

Скачать торрент Босс-молокосос в 3Д The Boss Baby 3D бесплатно через .torrent фильм мультфильм сериал

Если у вас наблюдаются проблемы со скриншотами, переходом по ссылками, скачиванием торрентов - проблемы в блокировщике рекламы AdBlock. #хорошегоДня!


Статистика раздачи
Размер:  7.16 GB   |    Зарегистрирован:  2 месяца 17 дней   |    .torrent скачан:  30 раз   |   
Раздают:  1  
   
Загрузка...
 
Автор Сообщение

Galfimbul

avatar Galfimbul


Босс-молокосос / The Boss Baby

Год выпуска: 2017
Страна: США (20th Century Fox, DreamWorks Animation SKG)
Жанр: Мультфильм, Комедия, Семейный
Продолжительность: 01:37:32

Перевод: Профессиональный дублированный(лицензия)
Русские субтитры: нет
Режиссер: Том МакГрат / Tom McGrath

В ролях: Алек Болдуин, Стив Бушеми, Джимми Киммел, Лиза Кудроу, Тоби Магуайр, Майлз Кристофер Бакши, James McGrath, Конрад Вернон, ВивиЭнн Йи, Эрик Белл мл.

Описание: Эта актуальная во все времена история для взрослых и детей рассказывается от лица семилетнего брата новорожденного — фантазера Тима, который ревнует его к родителям. Но главный герой — совсем не простой ребенок, он обладает лидерскими задатками, уже носит деловые костюмы и во всем видит бизнес-задачу.
Однажды Тим узнает о готовящемся заговоре, целью которого является уничтожение любви, и организовал его директор компании «Puppy Co». Но одному Тиму не по силам его остановить. Мальчику предстоит объединиться со своим «нелюбимым» братом, чтобы спасти родителей и вернуть порядок на Земле.

Сэмпл: http://sendfile.su/1351622

Качество: BDrip
Контейнер: MKV
Формат 3D: OverUnder / Вертикальная стереопара
Порядок ракурсов: левый ракурс первый
Видео кодек: x264
Аудио кодек: AC3
Видео: AVC / High@L5.0 / 23,976 fps / 1920х2160 / 9023 Кбит/сек
Аудио: Русский / AC3 / 48 KHz / 5.1 ch / 640 Кбит/сек(лицензия)
Аудио 2: Английский / AC3 / 48 KHz / 5.1 ch / 640 Кбит/сек

ВНИМАНИЕ ! На встроенных ТВ-плеерах работать не будет!!!
ТВ Samsung в названии которого есть надпись Ultra HD , и LG Ultra HD 800 серии, LG C6P, Xiaomi Mi TV 2 воспроизводят полные стереопары встроенными плеерами
Железные плееры на которых воспроизводятся полные стереопары:Popcorn C-200 , Dune HD Smart D1 , Dune HD DUO , Dune HD Smart H1 , Dune HD Smart B1 , Dune HD Max , Dune HD TV-303D , Dune HD Base 3D, Philips HMP7001, Aura HD, MECOOL BB2
Чтобы изображение было на весь экран в плеере выставляем, если рип 1920х1600 - то выставляем 2.35:1 , если 1920х2160 - то выставляем 16:9

28.07.2017. Релиз обновлён - русская звуковая дорога iTunes заменена на лицензию.
Желающие, скачайте заново торрент-файл.
Общее
Уникальный идентификатор : 175669788069444080402948888956636390408 (0x8428C54095474EAFB6D74C19B8A26408)
Полное имя : E:\закачки\The Boss Baby.Rip by SeRoGa00.mkv
Формат : Matroska
Версия формата : Version 2
Размер файла : 7,16 Гбайт
Продолжительность : 1 ч. 37 м.
Общий поток : 10,5 Мбит/сек
Дата кодирования : UTC 2017-07-28 05:48:49
Программа кодирования : mkvmerge v3.4.0 ('Rapunzel') сборка от May 15 2010 09:38:20
Библиотека кодирования : libebml v0.8.0 + libmatroska v0.9.0

Видео
Идентификатор : 1
Формат : AVC
Формат/Информация : Advanced Video Codec
Профиль формата : High@L5.0
Параметр CABAC формата : Да
Параметр ReFrames формата : 4 кадра
Идентификатор кодека : V_MPEG4/ISO/AVC
Продолжительность : 1 ч. 37 м.
Битрейт : 9018 Кбит/сек
Ширина : 1920 пикселей
Высота : 2160 пикселей
Соотношение сторон : 0,889
Частота кадров : 23,976 кадра/сек
Цветовое пространство : YUV
Субдискретизация насыщенности : 4:2:0
Битовая глубина : 8 бит
Тип развёртки : Прогрессивная
Бит/(Пиксели*Кадры) : 0.091
Размер потока : 6,14 Гбайт (86%)
Заголовок : Rip by SeRoGa00
Библиотека кодирования : x264 core 148 r2762 90a61ec
Настройки программы : cabac=1 / ref=4 / deblock=1:-3:-3 / analyse=0x3:0x113 / me=umh / subme=10 / psy=1 / psy_rd=1.00:0.15 / mixed_ref=1 / me_range=24 / chroma_me=1 / trellis=2 / 8x8dct=1 / cqm=0 / deadzone=21,11 / fast_pskip=1 / chroma_qp_offset=-3 / threads=9 / lookahead_threads=2 / sliced_threads=0 / nr=0 / decimate=1 / interlaced=0 / bluray_compat=0 / constrained_intra=0 / bframes=10 / b_pyramid=2 / b_adapt=2 / b_bias=0 / direct=3 / weightb=1 / open_gop=0 / weightp=2 / keyint=250 / keyint_min=23 / scenecut=40 / intra_refresh=0 / rc_lookahead=60 / rc=crf / mbtree=1 / crf=18.0 / qcomp=0.60 / qpmin=10 / qpmax=69 / qpstep=4 / vbv_maxrate=40000 / vbv_bufsize=40000 / crf_max=0.0 / nal_hrd=none / filler=0 / ip_ratio=1.40 / aq=1:1.00
Язык : English
Default : Нет
Forced : Нет

Аудио #1
Идентификатор : 2
Формат : AC-3
Формат/Информация : Audio Coding 3
Расширение режима : CM (complete main)
Параметр Endianness формата : Big
Идентификатор кодека : A_AC3
Продолжительность : 1 ч. 37 м.
Вид битрейта : Постоянный
Битрейт : 640 Кбит/сек
Каналы : 6 каналов
Расположение каналов : Front: L C R, Side: L R, LFE
Частота : 48,0 КГц
Битовая глубина : 16 бит
Метод сжатия : С потерями
Размер потока : 446 Мбайт (6%)
Язык : Russian
Default : Да
Forced : Нет

Аудио #2
Идентификатор : 3
Формат : AC-3
Формат/Информация : Audio Coding 3
Расширение режима : CM (complete main)
Параметр Endianness формата : Big
Идентификатор кодека : A_AC3
Продолжительность : 1 ч. 37 м.
Вид битрейта : Постоянный
Битрейт : 640 Кбит/сек
Каналы : 6 каналов
Расположение каналов : Front: L C R, Side: L R, LFE
Частота : 48,0 КГц
Битовая глубина : 16 бит
Метод сжатия : С потерями
Размер потока : 446 Мбайт (6%)
Язык : English
Default : Нет
Forced : Нет


Трекер:  [ 08-Сен-2017 00:30 ]

  

Скачать .torrent

Размер .torrent файла 36 KB


Размер: 7.16 GB
Хэш (hash) релиза: fbc57725f310710913705322bb0d291efa953b2c
Подписка на обновления:

Еще никто не оставлял запись к записи скачать торрент Босс-молокосос в 3Д The Boss Baby 3D . Будь первым!

!Обратная связь