Скачать через торрент Красавица и чудовище в 3Д Beauty and the Beast 3D Фильм бесплатно в хорошем качестве torrent

Скачивайте на UnionPeer.org фильмы через торрент без регистрации. Новинки кино в хорошем качестве через торрент. На UnionPeer.org можно скачать через торрент фильмы 2014 и 2015 годов. Самые новые фильмы.

Скачать торрент Красавица и чудовище в 3Д Beauty and the Beast 3D бесплатно через .torrent фильм мультфильм сериал

Если у вас наблюдаются проблемы со скриншотами, переходом по ссылками, скачиванием торрентов - проблемы в блокировщике рекламы AdBlock. #хорошегоДня!


Статистика раздачи
Размер:  12.78 GB   |    Зарегистрирован:  17 дней   |    .torrent скачан:  3 раза   |   
Раздают:  1  
   
Загрузка...
 
Автор Сообщение

Galfimbul

avatar Galfimbul


Красавица и чудовище / Beauty and the Beast

Год выпуска: 2017
Страна: США (Walt Disney Pictures)
Жанр: Мюзикл, Фэнтези, Мелодрама, Семейный
Продолжительность: 02:09:17

Перевод: Профессиональный дублированный(лицензия)
Русские субтитры: нет
Режиссер: Билл Кондон / Bill Condon
В ролях: Эмма Уотсон, Дэн Стивенс, Люк Эванс, Джош Гэд, Кевин Клайн, Хэтти Морахэн, Хейдн Гвин, Джерард Хоран, Рэй Фиарон, Эван МакГрегор

Описание: Обозлённая Волшебница превратила принца Адама в отвратительное чудовище за то, что тот был злым, самовлюблённым и грубым. Чтобы снять чары с себя и слуг своего замка, ему необходимо научиться быть добрым, любить и быть любимым. Произойти это должно до того, как с розы, подаренной Волшебницей, упадёт последний лепесток.
В далёкой деревушке живёт красивая девушка по имени Белль. Однажды её отец Морис отправляется на ярмарку, но по дороге сбивается с пути. Оказавшись в заколдованном замке, он становится пленником Чудовища. Белль спешит отцу на помощь.

Сэмпл: http://sendfile.su/1349003

Качество: BDrip
Контейнер: MKV
Формат 3D: OverUnder / Вертикальная стереопара
Порядок ракурсов: левый ракурс первый
Видео кодек: x264
Аудио кодек: AC3
Видео: AVC / High@L5.0 / 23,976 fps / 1920х2160 / 12,6 Мбит/сек
Аудио: Русский / AC3 / 48 KHz / 5.1 ch / 640 Кбит/сек(лицензия)
Аудио 2: Английский / AC3 / 48 KHz / 5.1 ch / 640 Кбит/сек

ВНИМАНИЕ ! На встроенных ТВ-плеерах работать не будет!!!
ТВ Samsung в названии которого есть надпись Ultra HD , и LG Ultra HD 800 серии, LG C6P, Xiaomi Mi TV 2 воспроизводят полные стереопары встроенными плеерами
Железные плееры на которых воспроизводятся полные стереопары:Popcorn C-200 , Dune HD Smart D1 , Dune HD DUO , Dune HD Smart H1 , Dune HD Smart B1 , Dune HD Max , Dune HD TV-303D , Dune HD Base 3D, Philips HMP7001, Aura HD, MECOOL BB2
Чтобы изображение было на весь экран в плеере выставляем, если рип 1920х1600 - то выставляем 2.35:1 , если 1920х2160 - то выставляем 16:9

16.07.2017. Релиз обновлён - русская звуковая дорога iTunes заменена на лицензию.
Желающие, скачайте заново торрент-файл.
Общее
Уникальный идентификатор : 173183276599847047039618993239019254540 (0x8249E2C59029E77DAA50FF0228B8730C)
Полное имя : E:\закачки\Beauty and the Beast.Rip by SeRoGa00.mkv
Формат : Matroska
Версия формата : Version 2
Размер файла : 12,8 Гбайт
Продолжительность : 2 ч. 9 м.
Общий поток : 14,2 Мбит/сек
Дата кодирования : UTC 2017-07-16 12:23:20
Программа кодирования : mkvmerge v3.4.0 ('Rapunzel') сборка от May 15 2010 09:38:20
Библиотека кодирования : libebml v0.8.0 + libmatroska v0.9.0

Видео
Идентификатор : 1
Формат : AVC
Формат/Информация : Advanced Video Codec
Профиль формата : High@L5.0
Параметр CABAC формата : Да
Параметр ReFrames формата : 4 кадра
Идентификатор кодека : V_MPEG4/ISO/AVC
Продолжительность : 2 ч. 9 м.
Битрейт : 12,6 Мбит/сек
Ширина : 1920 пикселей
Высота : 2160 пикселей
Соотношение сторон : 0,889
Частота кадров : 23,976 кадра/сек
Цветовое пространство : YUV
Субдискретизация насыщенности : 4:2:0
Битовая глубина : 8 бит
Тип развёртки : Прогрессивная
Бит/(Пиксели*Кадры) : 0.127
Размер потока : 11,4 Гбайт (89%)
Заголовок : Rip by SeRoGa00
Библиотека кодирования : x264 core 148 r2762 90a61ec
Настройки программы : cabac=1 / ref=4 / deblock=1:-3:-3 / analyse=0x3:0x113 / me=umh / subme=10 / psy=1 / psy_rd=1.00:0.15 / mixed_ref=1 / me_range=24 / chroma_me=1 / trellis=2 / 8x8dct=1 / cqm=0 / deadzone=21,11 / fast_pskip=1 / chroma_qp_offset=-3 / threads=9 / lookahead_threads=2 / sliced_threads=0 / nr=0 / decimate=1 / interlaced=0 / bluray_compat=0 / constrained_intra=0 / bframes=10 / b_pyramid=2 / b_adapt=2 / b_bias=0 / direct=3 / weightb=1 / open_gop=0 / weightp=2 / keyint=250 / keyint_min=23 / scenecut=40 / intra_refresh=0 / rc_lookahead=60 / rc=crf / mbtree=1 / crf=18.0 / qcomp=0.60 / qpmin=10 / qpmax=69 / qpstep=4 / vbv_maxrate=40000 / vbv_bufsize=40000 / crf_max=0.0 / nal_hrd=none / filler=0 / ip_ratio=1.40 / aq=1:1.00
Язык : English
Default : Нет
Forced : Нет

Аудио #1
Идентификатор : 2
Формат : AC-3
Формат/Информация : Audio Coding 3
Расширение режима : CM (complete main)
Параметр Endianness формата : Big
Идентификатор кодека : A_AC3
Продолжительность : 2 ч. 9 м.
Вид битрейта : Постоянный
Битрейт : 640 Кбит/сек
Каналы : 6 каналов
Расположение каналов : Front: L C R, Side: L R, LFE
Частота : 48,0 КГц
Битовая глубина : 16 бит
Метод сжатия : С потерями
Размер потока : 592 Мбайт (5%)
Язык : Russian
Default : Да
Forced : Нет

Аудио #2
Идентификатор : 3
Формат : AC-3
Формат/Информация : Audio Coding 3
Расширение режима : CM (complete main)
Параметр Endianness формата : Big
Идентификатор кодека : A_AC3
Продолжительность : 2 ч. 9 м.
Вид битрейта : Постоянный
Битрейт : 640 Кбит/сек
Каналы : 6 каналов
Расположение каналов : Front: L C R, Side: L R, LFE
Частота : 48,0 КГц
Битовая глубина : 16 бит
Метод сжатия : С потерями
Размер потока : 592 Мбайт (5%)
Язык : English
Default : Нет
Forced : Нет


Трекер:  [ 08-Сен-2017 00:30 ]

  

Скачать .torrent

Размер .torrent файла 64 KB


Размер: 12.78 GB
Хэш (hash) релиза: ac06126c2d6a9a08c659cdb00b68f3ea53fc5324
Подписка на обновления:

Торренты, похожие на Красавица и чудовище в 3Д Beauty and the Beast 3D скачать торрент

Форум Название Автор Размер S L Добавлен
3D Фильмы, кино ·· Красавица и чудовище в 3Д / Beauty and the Beast 3D (Билл Кондон / Bill Condon) [2017, Мюзикл, Фэнтези, Мелодрама, Семейный, BDrip] Half OverUnder / Вертикальная анаморфная стереопара Galfimbul 102437494189.54 GB 0 0 1504819988

00:33

8-Сен-17

3D Фильмы, кино ·· Красавица и чудовище в 3Д / Beauty and the Beast 3D (Билл Кондон / Bill Condon) [2017, Мюзикл, фэнтези, мелодрама, семейный, BDremux, 1080p] BD3D Galfimbul 3836864102435.73 GB 0 0 1504819977

00:32

8-Сен-17

3D Фильмы, кино ·· Красавица и чудовище в 3Д / Beauty and the Beast 3D (Билл Кондон / Bill Condon) [2017, США, мюзикл, фэнтези, мелодрама, семейный, BDRip] Half SideBySide / Горизонтальная анаморфная стереопара Galfimbul 1742552437516.23 GB 0 0 1504818173

00:02

8-Сен-17

3D Мультфильмы ·· Красавица и чудовище в 3Д / Beauty and the Beast 3D (Гари Труздейл, Кирк Уайз / Gary Trousdale, Kirk Wise) [1991, Мультфильм, Мюзикл, Фэнтези, Мелодрама, Семейный, BDrip-AVC] Half OverUnder / Вертикальная анаморфная стереопара Galfimbul 87655682848.16 GB 0 0 1414346801

21:06

26-Окт-14

3D Мультфильмы ·· Красавица и чудовище в 3Д / Beauty and the Beast 3D (Гари Труздейл, Кирк Уайз / Gary Trousdale, Kirk Wise) [1991, Мультфильм, Мюзикл, Фэнтези, Мелодрама, Семейный, BDrip, 1080p] Anaglyph Dubois / Анаглиф Дюбуа L 54661749665.09 GB 0 0 1328089255

12:40

1-Фев-12

3D Мультфильмы ·· Красавица и чудовище в 3Д / Beauty and the Beast 3D (Гари Труздейл, Кирк Уайз / Gary Trousdale, Kirk Wise) [1991, Мультфильм, Мюзикл, Фэнтези, Мелодрама, Семейный, Blu-Ray 1080p, (Custom)] BD3D L 4602494976042.86 GB 0 0 1316876821

18:07

24-Сен-11

Еще никто не оставлял запись к записи скачать торрент Красавица и чудовище в 3Д Beauty and the Beast 3D . Будь первым!

!Обратная связь