Скачать порно через торрент Otokonoko Ojou-sama! Hikaru to Ayana no Himitsu Collection Мальчик и его госпожа UnionPeer.org бесплатно онлайн HD качество

Скачать новое порно 2015, 2014 новинки через торрент UnionPeer.org

Порно торрент бесплатно ЮнионПир.орг

Если у вас наблюдаются проблемы со скриншотами, переходом по ссылками, скачиванием торрентов - проблемы в блокировщике рекламы AdBlock. #хорошегоДня!


Статистика раздачи
Размер:  149 MB   |    Зарегистрирован:  2 месяца 14 дней   |    .torrent скачан:  714 раз   |   
Раздают:  2   Качают:  1  
   
Загрузка...
 
Автор Сообщение

Galfimbul

avatar Galfimbul


Otokonoko Ojou-sama! Hikaru to Ayana no Himitsu Collection
オトコの娘お嬢様っ 光と綾奈の秘密コレクション
Мальчик и его госпожа

Год выпуска: 2011
Жанр: big breast, oral, paizuri, maids, swimsuit, trap
Серии: ep. 1 of 1
Продолжительность: 16mn
Цензура: Есть во всех файлах

Озвучка: Японская оригинальная
Озвучка: Русская [VashMax2] любительская (одноголосая) внешняя
Субтитры: Английские [SubDESU-H] внешние ASS
Субтитры: Французские [Johnny-subs] внешние ASS
Субтитры: Немецкие [Team-DD] внешние ASS
Субтитры: Испанские [A-H] внешние ASS
Субтитры: Португальские [START Fansub] внешние ASS
Субтитры: Русские [Сева Лихман] ужасные внешние ASS

Режиссер: Onoda Yuusuke
Студия: ChiChi No Ya

Описание: Мальчик-прислуга и опытная женщина с внушительным размером переднего бампера. Хозяйка развлекается с парнишкой и записывает на видео их секс, собирая секретную видеоколлекцию.

Доп. информация: Убрал перехлёст тайминга в русабе. Саб ужасный во всех смыслах.

Качество видео: DVDrip [торрент иваниваныч]
Разрешение видео: 480p
Формат видео: MKV
Видео: 720-480, 16-9, 23.976 fps, AVC, 722 kbps
Аудио 1: jpn, AC-3, Stereo, 48.0 KHz, 192 kbps
Аудио 2: rus, AC-3, Stereo, 48.0 KHz, 192 kbps
General
Unique ID : 190542968669348211225842141370884097023 (0x8F593DABF7CFD05DAA0ACE192EF903FF)
Complete name : Otokonoko_ojou-sama!_Hikaru_to_Ayana_no_himitsu_collection_v2_[Galan_rus_raw][1112D82C].mkv
Format : Matroska
Format version : Version 2
File size : 107 MiB
Duration : 16 min 3 s
Overall bit rate : 933 kb/s
Movie name : рип торрент иваниваныч
Encoded date : UTC 2017-09-07 18:44:32
Writing application : mkvmerge v6.0.0 ('Coming Up For Air') built on Jan 20 2013 09:52:00
Writing library : libebml v1.3.0 + libmatroska v1.4.0

Video
ID : 1
Format : AVC
Format/Info : Advanced Video Codec
Format profile : High 10@L5.2
Format settings, CABAC : Yes
Format settings, ReFrames : 16 frames
Codec ID : V_MPEG4/ISO/AVC
Duration : 16 min 3 s
Bit rate : 722 kb/s
Width : 720 pixels
Height : 480 pixels
Display aspect ratio : 16:9
Frame rate mode : Constant
Frame rate : 23.976 (24000/1001) FPS
Color space : YUV
Chroma subsampling : 4:2:0
Bit depth : 10 bits
Scan type : Progressive
Bits/(Pixel*Frame) : 0.087
Stream size : 83.0 MiB (77%)
Title : Otokonoko ojou-sama! Hikaru to Ayana no himitsu collection
Writing library : x264 core 146 r2538 121396c
Encoding settings : cabac=1 / ref=16 / deblock=1:-1:-1 / analyse=0x3:0x133 / me=tesa / subme=9 / psy=0 / mixed_ref=1 / me_range=32 / chroma_me=1 / trellis=0 / 8x8dct=1 / cqm=0 / deadzone=21,11 / fast_pskip=0 / chroma_qp_offset=0 / threads=12 / lookahead_threads=3 / sliced_threads=0 / nr=0 / decimate=1 / interlaced=0 / bluray_compat=0 / constrained_intra=0 / bframes=16 / b_pyramid=2 / b_adapt=2 / b_bias=0 / direct=3 / weightb=1 / open_gop=0 / weightp=2 / keyint=250 / keyint_min=23 / scenecut=40 / intra_refresh=0 / rc_lookahead=60 / rc=crf / mbtree=1 / crf=14.0 / qcomp=0.70 / qpmin=0 / qpmax=81 / qpstep=4 / ip_ratio=1.40 / aq=3:0.60
Language : Japanese
Default : Yes
Forced : No

Audio
ID : 2
Format : AC-3
Format/Info : Audio Coding 3
Format settings, Endianness : Big
Codec ID : A_AC3
Duration : 16 min 3 s
Bit rate mode : Constant
Bit rate : 192 kb/s
Channel(s) : 2 channels
Channel positions : Front: L R
Sampling rate : 48.0 kHz
Frame rate : 31.250 FPS (1536 spf)
Bit depth : 16 bits
Compression mode : Lossy
Stream size : 22.0 MiB (21%)
Title : jpn
Language : Japanese
Service kind : Complete Main
Default : Yes
Forced : No

Menu
00:00:00.000 : en:Chapter 1
00:01:00.700 : en:Chapter 2
00:03:13.933 : en:Chapter 3
00:06:08.233 : en:Chapter 4
00:10:00.200 : en:Chapter 5
00:11:59.433 : en:Chapter 6
00:13:06.133 : en:Chapter 7
00:14:08.199 : en:Chapter 8
От wirruss – лучше качество, сравнение, сравнение с ДВД, субтитры.


Трекер:  [ 08-Сен-2017 00:20 ]

  

Скачать .torrent

Размер .torrent файла 13 KB


Размер: 149 MB
Хэш (hash) релиза: a9ceb44e09f226d2c2ded1b27a40aab852077cce

Еще никто не оставлял запись к записи скачать торрент Otokonoko Ojou-sama! Hikaru to Ayana no Himitsu Collection Мальчик и его госпожа . Будь первым!

!Обратная связь