Скачать через торрент Конг: Остров черепа Kong: Skull Island 3D Фильм бесплатно в хорошем качестве torrent

Скачивайте на UnionPeer.org фильмы через торрент без регистрации. Новинки кино в хорошем качестве через торрент. На UnionPeer.org можно скачать через торрент фильмы 2014 и 2015 годов. Самые новые фильмы.

Скачать торрент Конг: Остров черепа Kong: Skull Island 3D бесплатно через .torrent фильм мультфильм сериал

Если у вас наблюдаются проблемы со скриншотами, переходом по ссылками, скачиванием торрентов - проблемы в блокировщике рекламы AdBlock. #хорошегоДня!


Статистика раздачи
Размер:  10.06 GB   |    Зарегистрирован:  2 месяца 13 дней   |    .torrent скачан:  49 раз   |   
Раздают:  2  
   
Загрузка...
 
Автор Сообщение

Galfimbul

avatar Galfimbul


Конг: Остров черепа / Kong: Skull Island
Год выхода: 2017
Выпущено: США / Legendary Pictures, Warner Bros. Pictures.
Жанр: фантастика, фэнтези, боевик, приключения
Продолжительность: 01:58:23
Перевод: Профессиональный (полное дублирование)
Субтитры: русские, английские
Оригинальная аудиодорожка: английскийРежиссер: Джордан Вот-Робертс / Jordan Vogt-RobertsВ ролях: Том Хиддлстон, Сэмюэл Л. Джексон, Джон Гудмен, Бри Ларсон, Тянь Цзин, Тоби Кеббелл, Джон Ортис, Кори Хоукинс, Джейсон Митчелл, Ши Уигхэм.Описание: На неизвестный остров в Тихом океане попадает команда ученых, военных и искателей приключений. Они вторгаются во владения могучего Конга и тем самым развязывают сражение между человеком и природой. Очень скоро исследовательская миссия превращается в игру на выживание, ее участники вынуждены буквально прорубать себе путь к спасению.Рейтинг
kinopoisk.ru 6.431 (40 990)
imdb.com 6.80 (123 940)Формат 3D: Half SideBySide / Горизонтальная анаморфная стереопара
Качество: BDRip (селезень)
Контейнер: MKV
Видео: 1920x1080 at 23.976 fps, x264@L4.1, crf, ~11100 kbps avg
Аудио 1: Russian 48 kHz, AC3, 3/2 (L,C,R,l,r) + LFE ch, ~448.00 kbps avg | Дубляж BD CEE
Аудио 2: English 48 kHz, AC3, 3/2 (L,C,R,l,r) + LFE ch, ~640.00 kbps avg | Original
Субтитры: русские (форсированные, полные), английские (полные)
Формат : Matroska
Версия формата : Version 4 / Version 2
Размер файла : 10,1 Гбайт
Продолжительность : 1 ч. 58 м.
Общий поток : 12,2 Мбит/сек
Название фильма : Конг: Остров черепа / Kong: Skull Island / 2017
Дата кодирования : UTC 2017-08-20 15:30:41
Программа кодирования : mkvmerge v13.0.0 ('The Juggler') 32bit
Библиотека кодирования : libebml v1.3.4 + libmatroska v1.4.5

Видео
Идентификатор : 1
Формат : AVC
Формат/Информация : Advanced Video Codec
Профиль формата : High@L4.1
Параметр CABAC формата : Да
Параметр RefFrames формата : 4 кадра
Идентификатор кодека : V_MPEG4/ISO/AVC
Продолжительность : 1 ч. 58 м.
Битрейт : 11,1 Мбит/сек
Ширина : 1920 пикселей
Высота : 1080 пикселей
Соотношение сторон : 16:9
Режим частоты кадров : Постоянный
Частота кадров : 23,976 (24000/1001) кадра/сек
Цветовое пространство : YUV
Субдискретизация насыщенности : 4:2:0
Битовая глубина : 8 бит
Тип развёртки : Прогрессивная
Бит/(Пиксели*Кадры) : 0.223
Размер потока : 9,16 Гбайт (91%)
Заголовок : 3D HSBS
Библиотека кодирования : x264 core 148 r2744 b97ae06
Настройки программы : cabac=1 / ref=4 / deblock=1:-2:-2 / analyse=0x3:0x133 / me=umh / subme=10 / psy=1 / psy_rd=1.05:0.05 / mixed_ref=1 / me_range=32 / chroma_me=1 / trellis=2 / 8x8dct=1 / cqm=0 / deadzone=21,11 / fast_pskip=0 / chroma_qp_offset=-3 / threads=12 / lookahead_threads=2 / sliced_threads=0 / nr=0 / decimate=0 / interlaced=0 / bluray_compat=0 / constrained_intra=0 / bframes=8 / b_pyramid=2 / b_adapt=2 / b_bias=0 / direct=3 / weightb=1 / open_gop=0 / weightp=2 / keyint=240 / keyint_min=24 / scenecut=40 / intra_refresh=0 / rc_lookahead=40 / rc=crf / mbtree=0 / crf=16.7 / qcomp=0.60 / qpmin=0 / qpmax=69 / qpstep=4 / vbv_maxrate=50000 / vbv_bufsize=62500 / crf_max=0.0 / nal_hrd=none / filler=0 / frame-packing=4 / ip_ratio=1.40 / pb_ratio=1.30 / aq=2:0.80
Язык : English
Default : Да
Forced : Нет

Аудио #1
Идентификатор : 2
Формат : AC-3
Формат/Информация : Audio Coding 3
Параметр Endianness формата : Big
Идентификатор кодека : A_AC3
Продолжительность : 1 ч. 58 м.
Вид битрейта : Постоянный
Битрейт : 448 Кбит/сек
Каналы : 6 каналов
Расположение каналов : Front: L C R, Side: L R, LFE
Частота : 48,0 КГц
Частота кадров : 31,250 кадров/сек (1536 SPF)
Битовая глубина : 16 бит
Метод сжатия : С потерями
Размер потока : 379 Мбайт (4%)
Заголовок : Дубляж BD CEE
Язык : Russian
ServiceKind/String : Complete Main
Default : Да
Forced : Нет

Аудио #2
Идентификатор : 3
Формат : AC-3
Формат/Информация : Audio Coding 3
Параметр Endianness формата : Big
Идентификатор кодека : A_AC3
Продолжительность : 1 ч. 58 м.
Вид битрейта : Постоянный
Битрейт : 640 Кбит/сек
Каналы : 6 каналов
Расположение каналов : Front: L C R, Side: L R, LFE
Частота : 48,0 КГц
Частота кадров : 31,250 кадров/сек (1536 SPF)
Битовая глубина : 16 бит
Метод сжатия : С потерями
Размер потока : 542 Мбайт (5%)
Заголовок : Original
Язык : English
ServiceKind/String : Complete Main
Default : Нет
Forced : Нет

Текст #1
Идентификатор : 4
Формат : UTF-8
Идентификатор кодека : S_TEXT/UTF8
Идентификатор кодека/Информация : UTF-8 Plain Text
Продолжительность : 1 ч. 57 м.
Битрейт : 3 бит/сек
ElementCount : 66
Размер потока : 3,31 Кбайт (0%)
Заголовок : Forced
Язык : Russian
Default : Да
Forced : Нет

Текст #2
Идентификатор : 5
Формат : UTF-8
Идентификатор кодека : S_TEXT/UTF8
Идентификатор кодека/Информация : UTF-8 Plain Text
Продолжительность : 1 ч. 57 м.
Битрейт : 76 бит/сек
ElementCount : 1264
Размер потока : 65,3 Кбайт (0%)
Заголовок : Full
Язык : Russian
Default : Нет
Forced : Нет

Текст #3
Идентификатор : 6
Формат : UTF-8
Идентификатор кодека : S_TEXT/UTF8
Идентификатор кодека/Информация : UTF-8 Plain Text
Продолжительность : 1 ч. 54 м.
Битрейт : 51 бит/сек
ElementCount : 1343
Размер потока : 42,8 Кбайт (0%)
Заголовок : Full
Язык : English
Default : Нет
Forced : Нет

Меню
00:00:00.000 : en:00:00:00.000
00:08:54.743 : en:00:08:54.743
00:19:51.774 : en:00:19:51.774
00:30:01.133 : en:00:30:01.133
00:40:00.106 : en:00:40:00.106
00:50:13.260 : en:00:50:13.260
01:00:49.729 : en:01:00:49.729
01:10:29.600 : en:01:10:29.600
01:18:05.890 : en:01:18:05.890
01:30:12.657 : en:01:30:12.657
01:39:09.026 : en:01:39:09.026
01:47:05.836 : en:01:47:05.836


Трекер:  [ 08-Сен-2017 00:30 ]

  

Скачать .torrent

Размер .torrent файла 50 KB


Размер: 10.06 GB
Хэш (hash) релиза: 5cb42f8568f9c0d8303bda1823f1a9c74eef3fdb
Подписка на обновления:

Торренты, похожие на Конг: Остров черепа Kong: Skull Island 3D скачать торрент

Форум Название Автор Размер S L Добавлен
3D Фильмы, кино ·· Конг: Остров черепа в 3Д / Kong: Skull Island 3D (Джордан Вот-Робертс / Jordan Vogt-Roberts) [2017, фантастика, фэнтези, боевик, приключения, Blu-Ray Disc, 1080p] [CEE] BD3D Galfimbul 4863970508845.3 GB 0 0 1504821811

01:03

8-Сен-17

3D Фильмы, кино ·· Конг: Остров черепа в 3Д / Kong: Skull Island 3D (Джордан Вот-Робертс / Jordan Vogt-Roberts) [2017, США, фантастика, фэнтези, боевик, приключения, Blu-ray Disc 1080p] BD3D [EUR] Galfimbul 4310997401640.15 GB 0 0 1504819966

00:32

8-Сен-17

3D Фильмы, кино ·· Конг: Остров черепа в 3Д / Kong: Skull Island 3D (Джордан Вот-Робертс / Jordan Vogt-Roberts) [2017, Фантастика, фэнтези, боевик, приключения, BDremux, 1080p] BD3D [Re-Encode - Left foreshortening first] Galfimbul 3279932620830.55 GB 0 0 1504819955

00:32

8-Сен-17

3D Фильмы, кино ·· Конг: Остров черепа в 3Д / Kong: Skull Island 3D (Джордан Вот-Робертс / Jordan Vogt-Roberts) [2017, Фантастика, Фэнтези, Боевик, Приключения, BDrip, 1080p] OverUnder / Вертикальная стереопара Galfimbul 1713027920315.95 GB 0 0 1504818186

00:03

8-Сен-17

Еще никто не оставлял запись к записи скачать торрент Конг: Остров черепа Kong: Skull Island 3D . Будь первым!

!Обратная связь