3 Beauty and the Beast 3D torrent

UnionPeer.org . . UnionPeer.org 2014 2015 . .

3 Beauty and the Beast 3D .torrent

, , - AdBlock. #!


16.23 GB   |    :  2 17    |    .torrent :  27    |   
1  
   
...
 

Galfimbul

avatar Galfimbul


3 / Beauty and the Beast 3D

:
: , , ,
: 2017
: 02:09:17

1: () | Blu-ray EUR
2: ( ) | .
: ,
: : / Bill Condon : , , , , , , , , , : , , . , , . , , , .
. , . , . .:
3D: Half SideBySide |
: BDRip
: MKV

: 1920x1080 at 23.976 fps, x264@L4.1, CRF, ~12.8 Mbps avg
1: Russian: 48 kHz, AC3, 3/2 (L,C,R,l,r) + LFE ch, ~640.00 kbps avg |, Blu-ray EUR|
2: Ukrainian: 48 kHz, DTS, 3/2 (L,C,R,l,r) + LFE ch, ~1536.00 kbps avg |, Disney / Buena Vista|
3: Russian: 48 kHz, DTS, 3/2 (L,C,R,l,r) + LFE ch, ~1536.00 kbps avg |.|
4: English: 48 kHz, DTS, 3/2 (L,C,R,l,r) + LFE ch, ~1536.00 kbps avg
<div class="q-wrap">
<div class="q-head"><b>:</b></div>
<div class="q"> Blu-ray.
WEB-DL "".
e180 : Sonny Black, tekst11, chontvari, -Holo-, kondratzx, dir, Letyoha3, TOMAN, WildCobra, , Cyberclean, miracle, Lee Ray, SokolF, Shumway, , luka69.
</div>
</div>
Format : Matroska
Format version : Version 2
File size : 16.2 GiB
Duration : 2 h 9 min
Overall bit rate : 18.0 Mb/s
Movie name : Beauty and the Beast (2017) [3D] - Release for HDCLUB
Encoded date : UTC 2017-07-26 23:55:35
Writing application : mkvmerge v3.4.0 ('Rapunzel') built on May 15 2010 09:38:20
Writing library : libebml v0.8.0 + libmatroska v0.9.0

Video
ID : 1
Format : AVC
Format/Info : Advanced Video Codec
Format profile : High@L4.1
MultiView_Count : 2
MultiView_Layout : Side by Side (left eye first)
Format settings, CABAC : Yes
Format settings, RefFrames : 4 frames
Codec ID : V_MPEG4/ISO/AVC
Duration : 2 h 9 min
Bit rate : 12.4 Mb/s
Width : 1 920 pixels
Height : 1 080 pixels
Display aspect ratio : 16:9
Frame rate mode : Constant
Frame rate : 23.976 (24000/1001) FPS
Color space : YUV
Chroma subsampling : 4:2:0
Bit depth : 8 bits
Scan type : Progressive
Bits/(Pixel*Frame) : 0.250
Stream size : 11.2 GiB (69%)
Title : Beauty and the Beast (2017) [3D] - Release for HDCLUB
Writing library : x264 core 148 r2744kMod b97ae06
Encoding settings : opencl=1 / cabac=1 / ref=4 / deblock=1:-3:-3 / analyse=0x3:0x133 / me=umh / subme=9 / psy=1 / fade_compensate=0.00 / psy_rd=1.05:0.00 / mixed_ref=1 / me_range=24 / chroma_me=1 / trellis=2 / 8x8dct=1 / cqm=0 / deadzone=21,11 / fast_pskip=0 / chroma_qp_offset=-2 / threads=34 / lookahead_threads=5 / sliced_threads=0 / nr=0 / decimate=0 / interlaced=0 / bluray_compat=0 / constrained_intra=0 / bframes=9 / b_pyramid=2 / b_adapt=2 / b_bias=0 / direct=3 / weightb=1 / open_gop=0 / weightp=2 / keyint=250 / keyint_min=23 / scenecut=40 / intra_refresh=0 / rc=crf / mbtree=0 / crf=16.0000 / qcomp=0.60 / qpmin=0 / qpmax=69 / qpstep=4 / frame-packing=3 / ip_ratio=1.30 / pb_ratio=1.20 / aq=3:0.80
Language : English
Default : Yes
Forced : No

Audio #1
ID : 2
Format : AC-3
Format/Info : Audio Coding 3
Format settings, Endianness : Big
Codec ID : A_AC3
Duration : 2 h 9 min
Bit rate mode : Constant
Bit rate : 640 kb/s
Channel(s) : 6 channels
Channel positions : Front: L C R, Side: L R, LFE
Sampling rate : 48.0 kHz
Frame rate : 31.250 FPS (1536 SPF)
Bit depth : 16 bits
Compression mode : Lossy
Stream size : 592 MiB (4%)
Title : AC3 5.1 @ 640 kbps - DUB, Blu-ray EUR
Language : Russian
Service kind : Complete Main
Default : Yes
Forced : No

Audio #2
ID : 3
Format : DTS
Format/Info : Digital Theater Systems
Mode : 16
Format settings, Endianness : Big
Codec ID : A_DTS
Duration : 2 h 9 min
Bit rate mode : Constant
Bit rate : 1 509 kb/s
Channel(s) : 6 channels
Channel positions : Front: L C R, Side: L R, LFE
Sampling rate : 48.0 kHz
Frame rate : 93.750 FPS (512 SPF)
Bit depth : 24 bits
Compression mode : Lossy
Stream size : 1.36 GiB (8%)
Title : DTS 5.1 @ 1536 kbps - DUB, Disney / Buena Vista
Language : Ukrainian
Default : No
Forced : No

Audio #3
ID : 4
Format : DTS
Format/Info : Digital Theater Systems
Mode : 16
Format settings, Endianness : Big
Codec ID : A_DTS
Duration : 2 h 9 min
Bit rate mode : Constant
Bit rate : 1 509 kb/s
Channel(s) : 6 channels
Channel positions : Front: L C R, Side: L R, LFE
Sampling rate : 48.0 kHz
Frame rate : 93.750 FPS (512 SPF)
Bit depth : 24 bits
Compression mode : Lossy
Stream size : 1.36 GiB (8%)
Title : DTS 5.1 @ 1536 kbps - AVO, Y.Jivov
Language : Russian
Default : No
Forced : No

Audio #4
ID : 5
Format : DTS
Format/Info : Digital Theater Systems
Mode : 16
Format settings, Endianness : Big
Codec ID : A_DTS
Duration : 2 h 9 min
Bit rate mode : Constant
Bit rate : 1 509 kb/s
Channel(s) : 6 channels
Channel positions : Front: L C R, Side: L R, LFE
Sampling rate : 48.0 kHz
Frame rate : 93.750 FPS (512 SPF)
Bit depth : 24 bits
Compression mode : Lossy
Stream size : 1.36 GiB (8%)
Title : DTS 5.1 @ 1536 kbps
Language : English
Default : No
Forced : No

Text #1
ID : 6
Format : UTF-8
Codec ID : S_TEXT/UTF8
Codec ID/Info : UTF-8 Plain Text
Title : iTunes
Language : Russian
Default : No
Forced : No

Text #2
ID : 7
Format : UTF-8
Codec ID : S_TEXT/UTF8
Codec ID/Info : UTF-8 Plain Text
Title : iTunes
Language : English
Default : No
Forced : No

Menu
00:00:00.000 : en:Once Upon A Time
00:04:36.276 : en:"Belle"
00:08:06.527 : en:Monsieur Gaston
00:11:18.260 : en:"How Does A Moment Last Forever" (Music Box)
00:15:21.545 : en:"Belle" (Reprise)
00:18:57.386 : en:Our Unwitting Host
00:25:05.921 : en:Forever Can Spare A Minute
00:31:41.566 : en:The East Wing
00:36:08.708 : en:"Gaston"
00:42:32.258 : en:Lonely
00:47:01.318 : en:"Be Our Guest"
00:54:44.990 : en:Saved By The Beast
01:00:43.556 : en:"Days In The Sun"
01:07:40.931 : en:"Something There"
01:14:38.223 : en:"How Does A Moment Last Forever" (Montmartre)
01:19:43.695 : en:Your Troubled Mind
01:22:02.751 : en:"Beauty And The Beast"
01:28:53.369 : en:"Evermore"
01:34:01.302 : en:"The Mob Song"
01:38:10.175 : en:"Attack"
01:45:23.692 : en:"I Am Not A Beast"
01:49:13.964 : en:The Final Petal
01:55:54.197 : en:"Beauty And The Beast" (Finale)
01:58:49.497 : en:End Credits


 ·  , , FAQ-
:  [ 08--2017 00:01 ]

  

.torrent

.torrent 81 KB


: 16.23 GB
(hash) : 40da2af0d1d2768e5bab96f3dba5fbdde997fe62
:
··
...

3 Beauty and the Beast 3D . !

!