Скачать через торрент Танцы со звёздами Танцi з зiрками Фильм бесплатно в хорошем качестве torrent

Скачивайте на UnionPeer.org фильмы через торрент без регистрации. Новинки кино в хорошем качестве через торрент. На UnionPeer.org можно скачать через торрент фильмы 2014 и 2015 годов. Самые новые фильмы.

Скачать торрент Танцы со звёздами Танцi з зiрками бесплатно через .torrent фильм мультфильм сериал

Если у вас наблюдаются проблемы со скриншотами, переходом по ссылками, скачиванием торрентов - проблемы в блокировщике рекламы AdBlock. #хорошегоДня!


Статистика раздачи
Размер:  2.96 GB   |    Зарегистрирован:  2 месяца 17 дней   |    .torrent скачан:  17 раз   |   
Раздают:  1  
   
Загрузка...
 
Автор Сообщение

Galfimbul

avatar Galfimbul


Танцы со звёздами / Танцi з зiрками

Дата/Год выпуска: 2017
Страна: Украина
Жанр: развлекательное шоу
Продолжительность: 2x120 мин.
Перевод: Не требуется
Русские субтитры: нет

Оригинальная аудиодорожка: украинский, русский
Ведущие: Юрий Горбунов и Тина Кароль
Телеканал: 1+1Описание: Десять долгих лет Украина ждала возвращения легендарных «Танцев со звёздами». И вот этот момент настал! «Танцы со звёздами» - это проект, за которым следят и который любят на всех континентах! Это безумное шоу, непредсказуемые перевоплощения звездных участников, праздничная атмосфера и насыщенное адреналином настроение! Это современные впечатляющие постановки, сказочные костюмы и неожиданные музыкальные номера. Это самый яркий проект этой осени - и он вас поразит. По правилам проекта, десять профессиональных танцовщиков составят пары украинским звездам. На глазах у телезрителей они должны продемонстрировать свои танцевальные способности и навыки, которые они получают во время изнурительных репетиций. Выполнение десяти композиций оценивают телезрители и профессиональное жюри. Каждый эпизод «Танцев со звёздами» - это напряженный и интригующий прямой эфир, и на судьбу каждой пары можете повлиять именно вы! Окунитесь в непредсказуемый и бурлящий мир «Танцев со звёздами» вместе с нами!Сэмпл: http://sendfile.su/1360370

качество: SATRip
формат: AVI
Видео: Xvid 720x400 (16:9) ~1536kbps 25fps
Аудио: MP3 192kbps 48kHz 2ch
01. Выпуск 1. Эфир 27 августа 2017 года.
02. Выпуск 2. Эфир 3 сентября 2017 года.
GeneralComplete name : E:\Мои раздачи\Телепрограммы\Танцы со звездами (2017)\Танцы со звездами (2017-08-27).aviFormat : AVIFormat/Info : Audio Video InterleaveFile size : 1.40 GiBDuration : 1 h 59 minOverall bit rate : 1 673 kb/s

VideoID : 0Format : MPEG-4 VisualFormat profile : Advanced Simple@L5Format settings, BVOP : 2Format settings, QPel : NoFormat settings, GMC : No warppointsFormat settings, Matrix : Default (H.263)Codec ID : XVIDCodec ID/Hint : XviDDuration : 1 h 59 minBit rate : 1 535 kb/sWidth : 720 pixelsHeight : 400 pixelsDisplay aspect ratio : 16:9Frame rate : 25.000 FPSColor space : YUVChroma subsampling : 4:2:0Bit depth : 8 bitsScan type : ProgressiveCompression mode : LossyBits/(Pixel*Frame) : 0.213Stream size : 1.29 GiB (92%)Writing library : XviD 73

AudioID : 1Format : MPEG AudioFormat version : Version 1Format profile : Layer 3Mode : Joint stereoMode extension : MS StereoCodec ID : 55Codec ID/Hint : MP3Duration : 1 h 59 minBit rate mode : ConstantBit rate : 128 kb/sChannel(s) : 2 channelsSampling rate : 48.0 kHzCompression mode : LossyStream size : 110 MiB (8%)Alignment : Split accross interleavesInterleave, duration : 40 ms (1.00 video frame)Interleave, preload duratio : 500 ms


Трекер:  [ 07-Сен-2017 23:42 ]

  

Скачать .torrent

Размер .torrent файла 15 KB


Размер: 2.96 GB
Хэш (hash) релиза: 6803d3c9b12ee059ed5802d0629358c809d2c689
Подписка на обновления:

Еще никто не оставлял запись к записи скачать торрент Танцы со звёздами Танцi з зiрками . Будь первым!

!Обратная связь