Скачать порно через торрент Himekishi Olivia Принцесса-рыцарь Оливия UnionPeer.org бесплатно онлайн HD качество

Скачать новое порно 2015, 2014 новинки через торрент UnionPeer.org

Порно торрент бесплатно ЮнионПир.орг

Если у вас наблюдаются проблемы со скриншотами, переходом по ссылками, скачиванием торрентов - проблемы в блокировщике рекламы AdBlock. #хорошегоДня!


Статистика раздачи
Размер:  1.25 GB   |    Зарегистрирован:  12 дней   |    .torrent скачан:  1014 раз   |   
Раздают:  22   Качают:  3  
   
Загрузка...
 
Автор Сообщение

Galfimbul

avatar Galfimbul


Himekishi Olivia
姫騎士オリヴィア
Принцесса-рыцарь Оливия

Год выпуска: 2013-2014
Жанр: virgin, rape, orc, tentacles, oral, dark elf, swimsuit, сreampie
Серии: ep. 1-2 of 2
Продолжительность: 2*25mn
Цензура: Отсутствует

Озвучка: Японская оригинальная
Субтитры: Английские [EROBEAT_LQ], [SubDESU-H] внешние ASS
Субтитры: Французские [KNY], внешние ASS
Субтитры: Китайские [Maho.sub] внешние ASS
Субтитры: Русские [MrHimera] ужасные внешние ASS

Режиссер: Kimura Takeshi
Автор оригинала: Silky`s
Студия: Studio Eromatick, MS Pictures, Hills

Описание: Очередная воительница попавшая в плен, нарочно попадают, мне кажется....

Качество видео: BDrip [erokuni]
Разрешение видео: 1080p
Формат видео: MKV
Видео: 1920-1080, 16-9, 23.976 fps, AVC, ~3300 kbps
Аудио: jpn, AAC, Stereo, 48.0 KHz, 150 kbps
General
Unique ID : 232614390436814443776196112221265934728 (0xAEFFE6E9B7FD507DB4F737ACE8AB3988)
Complete name : Himekishi_Olivia_01_[UNCEN][BDrip][erokuni][7CCE6EFD].mkv
Format : Matroska
Format version : Version 4 / Version 2
File size : 629 MiB
Duration : 25 min 40 s
Overall bit rate : 3 427 kb/s
Encoded date : UTC 2017-09-06 16:11:21
Writing application : mkvmerge v10.0.0 ('To Drown In You') 64bit
Writing library : libebml v1.3.4 + libmatroska v1.4.5

Video
ID : 1
Format : AVC
Format/Info : Advanced Video Codec
Format profile : High 10@L5.1
Format settings, CABAC : Yes
Format settings, ReFrames : 16 frames
Codec ID : V_MPEG4/ISO/AVC
Duration : 25 min 40 s
Bit rate : 3 270 kb/s
Width : 1 920 pixels
Height : 1 080 pixels
Display aspect ratio : 16:9
Frame rate mode : Constant
Frame rate : 23.976 (24000/1001) FPS
Color space : YUV
Chroma subsampling : 4:2:0
Bit depth : 10 bits
Scan type : Progressive
Bits/(Pixel*Frame) : 0.066
Stream size : 601 MiB (95%)
Writing library : x264 core 133 r2334 a3ac64b
Encoding settings : cabac=1 / ref=16 / deblock=1:0:0 / analyse=0x3:0x113 / me=umh / subme=11 / psy=1 / psy_rd=1.00:0.00 / mixed_ref=1 / me_range=16 / chroma_me=1 / trellis=2 / 8x8dct=1 / cqm=0 / deadzone=21,11 / fast_pskip=1 / chroma_qp_offset=-2 / threads=12 / lookahead_threads=1 / sliced_threads=0 / nr=0 / decimate=1 / interlaced=0 / bluray_compat=0 / constrained_intra=0 / bframes=3 / b_pyramid=2 / b_adapt=2 / b_bias=0 / direct=3 / weightb=1 / open_gop=0 / weightp=2 / keyint=240 / keyint_min=24 / scenecut=40 / intra_refresh=0 / rc_lookahead=50 / rc=crf / mbtree=1 / crf=18.0 / qcomp=0.60 / qpmin=0 / qpmax=81 / qpstep=4 / ip_ratio=1.40 / aq=1:1.00
Default : Yes
Forced : No

Audio
ID : 2
Format : AAC
Format/Info : Advanced Audio Codec
Format profile : LC
Codec ID : A_AAC
Duration : 25 min 40 s
Bit rate : 155 kb/s
Channel(s) : 2 channels
Channel positions : Front: L R
Sampling rate : 48.0 kHz
Frame rate : 46.875 FPS (1024 spf)
Compression mode : Lossy
Delay relative to video : 9 ms
Stream size : 28.4 MiB (5%)
Default : Yes
Forced : No
От vattok – там двдрип с немецким дубляжом, здесь бдрип.


Трекер:  [ 07-Сен-2017 17:50 ]

  

Скачать .torrent

Размер .torrent файла 14 KB


Размер: 1.25 GB
Хэш (hash) релиза: 0105b10d2fbe27eb71c0375f402549f8bfd6c5dc

Еще никто не оставлял запись к записи скачать торрент Himekishi Olivia Принцесса-рыцарь Оливия . Будь первым!

!Обратная связь