Скачать порно через торрент Dokushin Apartment Dokudami-sou Холостяцкие апартаменты Докудами UnionPeer.org бесплатно онлайн HD качество

Скачать новое порно 2015, 2014 новинки через торрент UnionPeer.org

Порно торрент бесплатно ЮнионПир.орг

Если у вас наблюдаются проблемы со скриншотами, переходом по ссылками, скачиванием торрентов - проблемы в блокировщике рекламы AdBlock. #хорошегоДня!


Статистика раздачи
Размер:  2.12 GB   |    Зарегистрирован:  2 месяца 13 дней   |    .torrent скачан:  645 раз   |   
Раздают:  7   Качают:  1  
   
Загрузка...
 
Автор Сообщение

Galfimbul

avatar Galfimbul


Dokushin Apartment Dokudami-sou
独身アパートどくだみ荘
Холостяцкие апартаменты Докудами

Год выпуска: 1989-1990
Жанр: comedy
Серии: ep. 1-3 of 3
Продолжительность: 51+2*44mn
Цензура: Этти - легкая эротика

Озвучка: Японская оригинальная

Режиссер: 立枯たつか
Автор оригинала: Fukutani Takashi
Студия: Suna Koubou

Описание: Старая добрая комедия про простака-извращенца.

Доп. информация: Докудами, это растение, которое на русском называется хауттюйния.

Качество видео: LDrip [Orphan-raw]
Разрешение видео: 480p
Формат видео: MKV
Видео: 640-480, 4-3, 23.976 fps, AVC, 1451-2026 kbps
Аудио: jpn, AC-3, Stereo, 48.0 KHz, 384 kbps
General
Unique ID : 172323488000128173422996792506930073995 (0x81A44BEBC1045622909DA616DB4E918B)
Complete name : Dokushin_apartment_Dokudami-sou_01_[LDrip][Orphan-raw][FFF82A72].mkv
Format : Matroska
Format version : Version 4 / Version 2
File size : 819 MiB
Duration : 50 min 57 s
Overall bit rate : 2 248 kb/s
Encoded date : UTC 2015-12-29 06:30:10
Writing application : mkvmerge v8.3.0 ('Over the Horizon') 64bit
Writing library : libebml v1.3.1 + libmatroska v1.4.2

Video
ID : 2
Format : AVC
Format/Info : Advanced Video Codec
Format profile : High 10@L4.1
Format settings, CABAC : Yes
Format settings, ReFrames : 16 frames
Codec ID : V_MPEG4/ISO/AVC
Duration : 50 min 57 s
Bit rate : 1 862 kb/s
Width : 640 pixels
Height : 480 pixels
Display aspect ratio : 4:3
Frame rate mode : Constant
Frame rate : 23.976 (24000/1001) FPS
Color space : YUV
Chroma subsampling : 4:2:0
Bit depth : 10 bits
Scan type : Progressive
Bits/(Pixel*Frame) : 0.253
Stream size : 679 MiB (83%)
Writing library : x264 core 148 r2638 7599210
Encoding settings : cabac=1 / ref=16 / deblock=1:0:0 / analyse=0x3:0x133 / me=umh / subme=10 / psy=1 / psy_rd=0.80:0.00 / mixed_ref=1 / me_range=24 / chroma_me=1 / trellis=2 / 8x8dct=1 / cqm=0 / deadzone=21,11 / fast_pskip=1 / chroma_qp_offset=-2 / threads=12 / lookahead_threads=2 / sliced_threads=0 / nr=0 / decimate=1 / interlaced=0 / bluray_compat=0 / constrained_intra=0 / bframes=8 / b_pyramid=2 / b_adapt=2 / b_bias=0 / direct=3 / weightb=1 / open_gop=0 / weightp=2 / keyint=240 / keyint_min=23 / scenecut=40 / intra_refresh=0 / rc_lookahead=60 / rc=crf / mbtree=1 / crf=16.0 / qcomp=0.60 / qpmin=0 / qpmax=81 / qpstep=4 / vbv_maxrate=62500 / vbv_bufsize=78125 / crf_max=0.0 / nal_hrd=none / filler=0 / ip_ratio=1.40 / aq=1:1.00
Default : Yes
Forced : No

Audio
ID : 1
Format : AC-3
Format/Info : Audio Coding 3
Format settings, Endianness : Big
Codec ID : A_AC3
Duration : 50 min 57 s
Bit rate mode : Constant
Bit rate : 384 kb/s
Channel(s) : 2 channels
Channel positions : Front: L R
Sampling rate : 48.0 kHz
Frame rate : 31.250 FPS (1536 spf)
Bit depth : 16 bits
Compression mode : Lossy
Stream size : 140 MiB (17%)
Language : Japanese
Service kind : Complete Main
Default : Yes
Forced : No
От vattok – лучше видео, сравнение.


Трекер:  [ 07-Сен-2017 17:50 ]

  

Скачать .torrent

Размер .torrent файла 11 KB


Размер: 2.12 GB
Хэш (hash) релиза: 14dcb5118912fcadd97f5f4e1fb5294f4dfc7d56

Еще никто не оставлял запись к записи скачать торрент Dokushin Apartment Dokudami-sou Холостяцкие апартаменты Докудами . Будь первым!

!Обратная связь