Скачать через торрент Плачу вперед! Фильм бесплатно в хорошем качестве torrent

Скачивайте на UnionPeer.org фильмы через торрент без регистрации. Новинки кино в хорошем качестве через торрент. На UnionPeer.org можно скачать через торрент фильмы 2014 и 2015 годов. Самые новые фильмы.

Скачать торрент Плачу вперед! бесплатно через .torrent фильм мультфильм сериал

Если у вас наблюдаются проблемы со скриншотами, переходом по ссылками, скачиванием торрентов - проблемы в блокировщике рекламы AdBlock. #хорошегоДня!


Статистика раздачи
Размер:  2.58 GB   |    Зарегистрирован:  14 дней   |    .torrent скачан:  3 раза   |   
Раздают:  1  
   
Загрузка...
 
Автор Сообщение

Galfimbul

avatar Galfimbul


Плачу вперед!

Жанр: трагифарс
Год выпуска: 1999
Продолжительность: 01:38:57Режиссёр: Виктор Титов

В ролях: Михаил Боярский, Наталья Данилова, Лариса Луппиан, Ксения Раппопорт, Наталья Белошапкина, В. Рудь, Я. Бухтояров, А. ШилинскасОписание: Сегодня у знаменитого актера Михаила Распятова очень сильно болит голова. И это не только результат бурного банкета по поводу аншлага на новом спектакле. Сегодня в одной квартире столкнулись три женщины, имеющие определенные планы на его дальнейшую судьбу, и бедняге придется сделать выбор. К молодой любовнице его влекут страсть и склонность к авантюрам. К немолодой жене — привычка и двадцать лет приятных воспоминаний. К богатой продюссерше — безоблачное будущее и безграничная любовь. Согласится ли жена за 100 000$ отступных на время развестись с мужем, который и так ей изменяет? Примет ли мужчина миллион из рук влюбленной женщины, чтобы ровно год принадлежать ей безраздельно? Сумеет ли юная красотка одной лишь пылкостью склонить чашу весов на свою сторону?Доп. информация: Без рекламных вставок
Есть два баннера (смотрим 4 скрин)

1 звуковая дорожка взята отсюда, так как лучше
Спасибо Cheef mate
Синхронизирована без пережатия

За запись фильма спасибо miha2154
За помощь в создании релиза спасибо pzagor

Сэмпл: минута55секКачество видео: DVB
Формат видео: MKV

Видео: AVC, 720х576, 4:3, 25,000 кадров/сек, 3340 Кбит/сек
Аудио 1: MP2, 48,0 КГц, 192 Кбит/сек, 2 канала (телеканал Москва Доверие)
Аудио 2: MP2, 48,0 КГц, 192 Кбит/сек, 2 канала (телеканал Родное Кино)
Общее
Уникальный идентификатор : 238097014000283841113943945268083020442 (0xB31FD11FEA39980AAA6902B81143D29A)
Полное имя : Плачу вперёд!1999.mkv
Формат : Matroska
Версия формата : Version 4 / Version 2
Размер файла : 2,58 Гбайт
Продолжительность : 1 ч. 38 м.
Общий поток : 3728 Кбит/сек
Название фильма : Плачу вперёд! / 1999 / DVB / 23.07.2017
Дата кодирования : UTC 2017-09-05 13:29:59
Программа кодирования : mkvmerge v8.3.0 ('Over the Horizon') 32bit
Библиотека кодирования : libebml v1.3.1 + libmatroska v1.4.2

Видео
Идентификатор : 1
Формат : AVC
Формат/Информация : Advanced Video Codec
Профиль формата : High@L3
Параметр CABAC формата : Да
Параметр RefFrames формата : 4 кадра
Идентификатор кодека : V_MPEG4/ISO/AVC
Продолжительность : 1 ч. 38 м.
Битрейт : 3340 Кбит/сек
Ширина : 720 пикселей
Высота : 576 пикселей
Соотношение сторон : 4:3
Соотношение сторон в оригинале : 4:3
Режим частоты кадров : Переменный
Частота кадров : 50,000 кадров/сек
Частота кадров в оригинале : 25,000 кадров/сек
Стандарт вещания : Component
Цветовое пространство : YUV
Субдискретизация насыщенности : 4:2:0
Битовая глубина : 8 бит
Тип развёртки : Чересстрочная
Метод сохранения типа развёртки : Раздельные поля
Порядок развёртки : Верхнее поле первое
Бит/(Пиксели*Кадры) : 0.161
Размер потока : 2,31 Гбайт (90%)
Заголовок : Плачу вперёд! / 1999 / DVB / 23.07.2017
Язык : Russian
Default : Да
Forced : Нет
Цветовой диапазон : Limited
Основные цвета : BT.601 PAL
Характеристики трансфера : BT.470 System B, BT.470 System G
Коэффициенты матрицы : BT.470 System B, BT.470 System G

Аудио #1
Идентификатор : 2
Формат : MPEG Audio
Версия формата : Version 1
Профиль формата : Layer 2
Идентификатор кодека : A_MPEG/L2
Идентификатор кодека/Подсказка : MP2
Продолжительность : 1 ч. 38 м.
Вид битрейта : Постоянный
Битрейт : 192 Кбит/сек
Каналы : 2 канала
Частота : 48,0 КГц
Частота кадров : 41,667 кадра/сек (1152 SPF)
Метод сжатия : С потерями
Размер потока : 136 Мбайт (5%)
Заголовок : телеканал Москва Доверие
Язык : Russian
Default : Да
Forced : Нет

Аудио #2
Идентификатор : 3
Формат : MPEG Audio
Версия формата : Version 1
Профиль формата : Layer 2
Идентификатор кодека : A_MPEG/L2
Идентификатор кодека/Подсказка : MP2
Продолжительность : 1 ч. 38 м.
Вид битрейта : Постоянный
Битрейт : 192 Кбит/сек
Каналы : 2 канала
Частота : 48,0 КГц
Частота кадров : 41,667 кадра/сек (1152 SPF)
Метод сжатия : С потерями
Размер потока : 136 Мбайт (5%)
Заголовок : оригинал
Язык : Russian
Default : Нет
Forced : Нет


Трекер:  [ 07-Сен-2017 14:24 ]

  

Скачать .torrent

Размер .torrent файла 13 KB


Размер: 2.58 GB
Хэш (hash) релиза: 14f77e0671d1f39d253d8a4118f3193236286522
Подписка на обновления:

Торренты, похожие на Плачу вперед! скачать торрент

Форум Название Автор Размер S L Добавлен
Российские фильмы до 2016 ·· Плачу вперед! (Виктор Титов) [1999, комедия, TVRip] L 38699806723.6 GB 0 0 1325707203

23:00

4-Янв-12

Еще никто не оставлял запись к записи скачать торрент Плачу вперед! . Будь первым!

!Обратная связь