The Mummy torrent

, , - AdBlock. #!


3.73 GB   |    :  17    |    .torrent :  24    |   
1  
   
...
 

Galfimbul

avatar Galfimbul


/ The Mummy


5.702 / 10 5.70 / 10
: 2017
:
: , , ,
: 01:50:05

: (iTunes)
:
C: , ,
:
: , ,
: , ,
:
:
: , , -
: , ,
: , , , , , . , , , ,

: $125 000 000
: $80 101 125
: + $327 676 888 = $407 778 013
: $16 413 948

: 22 2017
(): 8 2017, UPI

: , , , . . : Blu-Ray (BlueBird)
: BDRip
: HD (720p)
: M4V
: H.264, 1280x536, 2.40:1, 3 500 Kbps, 23.976 (24000/1001) fps

1: / (iTunes), AAC / 2.0 / 160 Kbps / 48.0 KHz
2: / , AAC / 2.0 / 160 Kbps / 48.0 KHz
3: / (iTunes), AC-3 / 5.1 / 384 Kbps / 48.0 KHz
4: / , AC-3 / 5.1 / 640 Kbps / 48.0 KHz

1:
2:
3:
Sort Name: Mummy
XID: Apple:vendor_id:2017-677638
contentID: 1238368178
Copyright: 2017 Universal Studios. All Rights Reserved.
Screenwriters: , ,
Producers: , ,
Director:
Cast: , , , , , . , , , ,
Studio: Universal Pictures
Rating Annotation: Rated PG-13 for violence, action and scary image, and for some suggestive content and partial nudity.
Rating: 4
Long Description: , , , . .
Description: , , , . .
Release Date: 2017-05-22T08:00:00Z
Genre: Action & Adventure
Artist: Alex Kurtzman
Name: The Mummy (2017)
General
Complete name : /Users/imac/HandBrake/The Mummy (2017) (720p HD).m4v
Format : MPEG-4
Codec ID : M4V (M4V /M4A /mp42/isom)
File size : 3.73 GiB
Duration : 1h 50mn
Overall bit rate mode : Variable
Overall bit rate : 4 846 Kbps
Movie name : The Mummy (2017)
Performer : Alex Kurtzman
Director :
Actor : / / / / / . / / / /
Screenplay by : / /
Producer : / /
Production studio : Universal Pictures
Genre : Action & Adventure
ContentType : Short Film
Description : , , , . .
Recorded date : UTC 2017-05-22 08:00:00
Encoded date : UTC 2017-09-07 10:16:53
Tagged date : UTC 2017-09-07 10:18:04
Copyright : 2017 Universal Studios. All Rights Reserved.
Cover : Yes
Rating : None
Title/Sort : Mummy
LongDescription : , , , . .
HDVideo : Yes
AppleStoreCatalogID : 1238368178
Vendor : Apple:vendor_id:2017-677638
ContentRating : mpaa|PG-13|300|Rated PG-13 for violence, action and scary image, and for some suggestive content and partial nudity.

Video #1
ID : 1
Format : AVC
Format/Info : Advanced Video Codec
Format profile : High@L3.1
Format settings, CABAC : No
Format settings, ReFrames : 3 frames
Codec ID : avc1
Codec ID/Info : Advanced Video Coding
Duration : 1h 50mn
Source duration : 1h 50mn
Bit rate : 3 500 Kbps
Width : 1 280 pixels
Height : 536 pixels
Display aspect ratio : 2.40:1
Frame rate mode : Variable
Frame rate : 23.976 (24000/1001) fps
Minimum frame rate : 23.974 fps
Maximum frame rate : 23.981 fps
Color space : YUV
Chroma subsampling : 4:2:0
Bit depth : 8 bits
Scan type : Progressive
Bits/(Pixel*Frame) : 0.213
Stream size : 2.69 GiB (72%)
Source stream size : 2.69 GiB (72%)
Title : Main Program
Writing library : x264 core 148 r2708 86b7198
Encoding settings : cabac=0 / ref=3 / deblock=1:-3:-3 / analyse=0x3:0x113 / me=umh / subme=9 / psy=1 / psy_rd=1.00:0.15 / mixed_ref=1 / me_range=32 / chroma_me=1 / trellis=0 / 8x8dct=1 / cqm=0 / deadzone=21,11 / fast_pskip=0 / chroma_qp_offset=-2 / threads=17 / lookahead_threads=1 / sliced_threads=0 / nr=0 / decimate=0 / interlaced=0 / bluray_compat=0 / constrained_intra=0 / bframes=3 / b_pyramid=0 / b_adapt=2 / b_bias=0 / direct=1 / weightb=0 / open_gop=0 / weightp=0 / keyint=240 / keyint_min=24 / scenecut=40 / intra_refresh=0 / rc_lookahead=40 / rc=2pass / mbtree=1 / bitrate=3500 / ratetol=1.0 / qcomp=0.65 / qpmin=0 / qpmax=69 / qpstep=4 / cplxblur=20.0 / qblur=0.5 / vbv_maxrate=9500 / vbv_bufsize=9500 / nal_hrd=none / filler=0 / ip_ratio=1.40 / aq=1:1.10
Language : English
Encoded date : UTC 2017-09-07 10:16:53
Tagged date : UTC 2017-09-07 10:17:04
Color range : Limited
Color primaries : BT.709
Transfer characteristics : BT.709
Matrix coefficients : BT.709
Menus : 9,10

Video #2
ID : 10
Format : JPEG
Codec ID : jpeg
Duration : 1h 50mn
Bit rate mode : Variable
Bit rate : 849 bps
Width : 640 pixels
Height : 268 pixels
Display aspect ratio : 2.40:1
Frame rate mode : Variable
Frame rate : 0.003 fps
Minimum frame rate : 0.002 fps
Maximum frame rate : 0.006 fps
Color space : YUV
Chroma subsampling : 4:2:0
Bit depth : 8 bits
Compression mode : Lossy
Bits/(Pixel*Frame) : 1.650
Stream size : 691 KiB (0%)
Title : Chapter Images
Language : English
Default : No
Encoded date : UTC 2017-09-07 10:17:08
Tagged date : UTC 2017-09-07 10:17:09
Menu For : 1

Audio #1
ID : 2
Format : AAC
Format/Info : Advanced Audio Codec
Format profile : LC
Codec ID : 40
Duration : 1h 50mn
Bit rate mode : Variable
Bit rate : 157 Kbps
Maximum bit rate : 222 Kbps
Channel(s) : 2 channels
Channel positions : Front: L R
Sampling rate : 48.0 KHz
Frame rate : 46.875 fps (1024 SPF)
Compression mode : Lossy
Stream size : 124 MiB (3%)
Title : Russian Stereo
Language : Russian
Default : Yes
Alternate group : 1
Encoded date : UTC 2017-09-07 10:16:53
Tagged date : UTC 2017-09-07 10:17:04
Fallback From : 4
Subtitles : 6,7

Audio #2
ID : 3
Format : AAC
Format/Info : Advanced Audio Codec
Format profile : LC
Codec ID : 40
Duration : 1h 50mn
Bit rate mode : Variable
Bit rate : 158 Kbps
Maximum bit rate : 238 Kbps
Channel(s) : 2 channels
Channel positions : Front: L R
Sampling rate : 48.0 KHz
Frame rate : 46.875 fps (1024 SPF)
Compression mode : Lossy
Stream size : 125 MiB (3%)
Title : English Stereo
Language : English
Default : No
Alternate group : 1
Encoded date : UTC 2017-09-07 10:16:53
Tagged date : UTC 2017-09-07 10:17:04
Fallback From : 5

Audio #3
ID : 4
Format : AC-3
Format/Info : Audio Coding 3
Format settings, Endianness : Big
Codec ID : ac-3
Duration : 1h 50mn
Bit rate mode : Constant
Bit rate : 384 Kbps
Channel(s) : 6 channels
Channel positions : Front: L C R, Side: L R, LFE
Sampling rate : 48.0 KHz
Frame rate : 31.250 fps (1536 SPF)
Bit depth : 16 bits
Compression mode : Lossy
Stream size : 302 MiB (8%)
Title : Russian DD 5.1
Language : Russian
Service kind : Complete Main
Default : Inherited From: 2
Alternate group : 1
Encoded date : UTC 2017-09-07 10:16:53
Tagged date : UTC 2017-09-07 10:17:04
Fallback To : 2
Subtitles : 6,7

Audio #4
ID : 5
Format : AC-3
Format/Info : Audio Coding 3
Format settings, Endianness : Big
Codec ID : ac-3
Duration : 1h 50mn
Bit rate mode : Constant
Bit rate : 640 Kbps
Channel(s) : 6 channels
Channel positions : Front: L C R, Side: L R, LFE
Sampling rate : 48.0 KHz
Frame rate : 31.250 fps (1536 SPF)
Bit depth : 16 bits
Compression mode : Lossy
Stream size : 504 MiB (13%)
Title : English DD 5.1
Language : English
Service kind : Complete Main
Default : No
Alternate group : 1
Encoded date : UTC 2017-09-07 10:16:53
Tagged date : UTC 2017-09-07 10:17:04
Fallback To : 3

Text #1
ID : 6
Format : Timed Text
Muxing mode : sbtl
Codec ID : tx3g
Duration : 1h 20mn
Bit rate mode : Variable
Bit rate : 2 bps
Stream size : 1.37 KiB (0%)
Title : Russian forced
Language : Russian
Default : Yes
Forced : Yes
Alternate group : 2
Encoded date : UTC 2017-09-07 10:16:53
Tagged date : UTC 2017-09-07 10:17:00
Subtitles For : 2,4
Full Alternative : 7

Text #2
ID : 7
Format : Timed Text
Muxing mode : sbtl
Codec ID : tx3g
Duration : 1h 41mn
Bit rate mode : Variable
Bit rate : 67 bps
Stream size : 50.2 KiB (0%)
Title : Russian full
Language : Russian
Default : No
Forced : No
Alternate group : 2
Encoded date : UTC 2017-09-07 10:16:53
Tagged date : UTC 2017-09-07 10:17:02
Subtitles For : 2,4
Forced Alternative : 6

Text #3
ID : 8
Format : Timed Text
Muxing mode : sbtl
Codec ID : tx3g
Duration : 1h 39mn
Bit rate mode : Variable
Bit rate : 45 bps
Stream size : 33.0 KiB (0%)
Title : English full
Language : English
Default : No
Forced : No
Alternate group : 2
Encoded date : UTC 2017-09-07 10:16:53
Tagged date : UTC 2017-09-07 10:17:02

Menu #1
00:00:00.000 : Chapter 1
00:08:17.789 : Chapter 2
00:13:18.339 : Chapter 3
00:19:30.961 : Chapter 4
00:24:39.436 : Chapter 5
00:28:53.273 : Chapter 6
00:35:40.639 : Chapter 7
00:39:35.456 : Chapter 8
00:46:59.358 : Chapter 9
00:50:57.096 : Chapter 10
00:56:49.239 : Chapter 11
01:00:43.265 : Chapter 12
01:08:57.133 : Chapter 13
01:16:03.017 : Chapter 14
01:19:37.690 : Chapter 15
01:23:15.532 : Chapter 16
01:26:26.181 : Chapter 17
01:33:34.400 : Chapter 18
01:37:02.859 : Chapter 19
01:39:47.857 : Chapter 20

Menu #2
ID : 9
Codec ID : text
Duration : 1h 50mn
Language : English
Encoded date : UTC 2017-09-07 10:17:04
Tagged date : UTC 2017-09-07 10:17:04
Menu For : 1
00:00:00.000 : Chapter 1
00:08:17.789 : Chapter 2
00:13:18.339 : Chapter 3
00:19:30.961 : Chapter 4
00:24:39.436 : Chapter 5
00:28:53.273 : Chapter 6
00:35:40.639 : Chapter 7
00:39:35.456 : Chapter 8
00:46:59.358 : Chapter 9
00:50:57.096 : Chapter 10
00:56:49.239 : Chapter 11
01:00:43.265 : Chapter 12
01:08:57.133 : Chapter 13
01:16:03.017 : Chapter 14
01:19:37.690 : Chapter 15
01:23:15.532 : Chapter 16
01:26:26.181 : Chapter 17
01:33:34.400 : Chapter 18
01:37:02.859 : Chapter 19
01:39:47.857 : Chapter 20
Bit rate mode : VBR
x264 [info]: frame I:1696 Avg QP:16.73 size:100282
x264 [info]: frame P:54208 Avg QP:18.89 size: 30538
x264 [info]: frame B:102472 Avg QP:20.08 size: 10359
x264 [info]: consecutive B-frames: 3.9% 15.3% 42.1% 38.6%
x264 [info]: mb I I16..4: 8.0% 62.4% 29.7%
x264 [info]: mb P I16..4: 3.9% 6.0% 2.3% P16..4: 49.8% 22.3% 10.7% 0.0% 0.0% skip: 5.0%
x264 [info]: mb B I16..4: 0.7% 1.0% 0.3% B16..8: 50.4% 10.2% 1.6% direct: 4.5% skip:31.4% L0:44.7% L1:50.5% BI: 4.8%
x264 [info]: 8x8 transform intra:51.4% inter:48.9%
x264 [info]: coded y,uvDC,uvAC intra: 69.3% 83.8% 72.2% inter: 25.5% 25.5% 15.1%
x264 [info]: i16 v,h,dc,p: 76% 8% 5% 12%
x264 [info]: i8 v,h,dc,ddl,ddr,vr,hd,vl,hu: 9% 6% 5% 12% 17% 15% 15% 10% 10%
x264 [info]: i4 v,h,dc,ddl,ddr,vr,hd,vl,hu: 9% 6% 3% 13% 18% 16% 15% 10% 9%
x264 [info]: i8c dc,h,v,p: 61% 14% 15% 11%
x264 [info]: ref P L0: 65.4% 20.6% 14.0%
x264 [info]: ref B L0: 74.0% 26.0%
x264 [info]: kb/s:3496.33
Apple TV, iPad, iPhone, iPod Touch.
Windows VLC media player

 ·  , , FAQ-
:  [ 07--2017 13:42 ]

  

.torrent

.torrent 37 KB


: 3.73 GB
(hash) : e6e970f9425bbc416358093d7f4a2b31e0ed9e24
··
...

The Mummy . !

!