[ATV3] The Mummy torrent

, , - AdBlock. #!


7.19 GB   |    :  17    |    .torrent :  25    |   
2  
   
...
 

Galfimbul

avatar Galfimbul


/ The Mummy


5.702 / 10 5.70 / 10
: 2017
:
: , , ,
: 01:50:05

: (iTunes)
:
C: , ,
:
: , ,
: , ,
:
:
: , , -
: , ,
: , , , , , . , , , ,

: $125 000 000
: $80 101 125
: + $327 676 888 = $407 778 013
: $16 413 948

: 22 2017
(): 8 2017, UPI

: , , , . . : Blu-Ray (BlueBird)
: BDRip
: HD (1080p)
: M4V
: H.264, 1920x800, 2.40:1, 8 000 Kbps, 23.976 (24000/1001) fps

1: / (iTunes), AAC / 2.0 / 160 Kbps / 48.0 KHz
2: / , AAC / 2.0 / 160 Kbps / 48.0 KHz
3: / (iTunes), AC-3 / 5.1 / 384 Kbps / 48.0 KHz
4: / , AC-3 / 5.1 / 640 Kbps / 48.0 KHz

1:
2:
3:
Sort Name: Mummy
XID: Apple:vendor_id:2017-677638
contentID: 1238368178
Copyright: 2017 Universal Studios. All Rights Reserved.
Screenwriters: , ,
Producers: , ,
Director:
Cast: , , , , , . , , , ,
Studio: Universal Pictures
Rating Annotation: Rated PG-13 for violence, action and scary image, and for some suggestive content and partial nudity.
Rating: 4
Long Description: , , , . .
Description: , , , . .
Release Date: 2017-05-22T08:00:00Z
Genre: Action & Adventure
Artist: Alex Kurtzman
Name: The Mummy (2017)
General
Complete name : /Users/imac/HandBrake/The Mummy (2017) (1080p HD).m4v
Format : MPEG-4
Codec ID : M4V (M4V /M4A /mp42/isom)
File size : 7.19 GiB
Duration : 1h 50mn
Overall bit rate mode : Variable
Overall bit rate : 9 347 Kbps
Movie name : The Mummy (2017)
Performer : Alex Kurtzman
Director :
Actor : / / / / / . / / / /
Screenplay by : / /
Producer : / /
Production studio : Universal Pictures
Genre : Action & Adventure
ContentType : Short Film
Description : , , , . .
Recorded date : UTC 2017-05-22 08:00:00
Encoded date : UTC 2017-09-07 09:21:03
Tagged date : UTC 2017-09-07 09:38:33
Copyright : 2017 Universal Studios. All Rights Reserved.
Cover : Yes
Rating : None
Title/Sort : Mummy
LongDescription : , , , . .
AppleStoreCatalogID : 1238368178
Vendor : Apple:vendor_id:2017-677638
ContentRating : mpaa|PG-13|300|Rated PG-13 for violence, action and scary image, and for some suggestive content and partial nudity.

Video #1
ID : 1
Format : AVC
Format/Info : Advanced Video Codec
Format profile : High@L4
Format settings, CABAC : Yes
Format settings, ReFrames : 4 frames
Codec ID : avc1
Codec ID/Info : Advanced Video Coding
Duration : 1h 50mn
Source duration : 1h 50mn
Bit rate : 8 000 Kbps
Width : 1 920 pixels
Height : 800 pixels
Display aspect ratio : 2.40:1
Frame rate mode : Variable
Frame rate : 23.976 (24000/1001) fps
Minimum frame rate : 23.974 fps
Maximum frame rate : 23.981 fps
Color space : YUV
Chroma subsampling : 4:2:0
Bit depth : 8 bits
Scan type : Progressive
Bits/(Pixel*Frame) : 0.217
Stream size : 6.15 GiB (86%)
Source stream size : 6.15 GiB (86%)
Title : Main Program
Writing library : x264 core 148 r2708 86b7198
Encoding settings : cabac=1 / ref=4 / deblock=1:-2:-2 / analyse=0x3:0x133 / me=umh / subme=10 / psy=1 / psy_rd=1.00:0.15 / mixed_ref=1 / me_range=32 / chroma_me=1 / trellis=2 / 8x8dct=1 / cqm=0 / deadzone=21,11 / fast_pskip=1 / chroma_qp_offset=-3 / threads=25 / lookahead_threads=6 / sliced_threads=0 / nr=0 / decimate=0 / interlaced=0 / bluray_compat=0 / constrained_intra=0 / bframes=16 / b_pyramid=2 / b_adapt=2 / b_bias=0 / direct=3 / weightb=1 / open_gop=0 / weightp=2 / keyint=240 / keyint_min=24 / scenecut=40 / intra_refresh=0 / rc_lookahead=40 / rc=2pass / mbtree=1 / bitrate=8000 / ratetol=1.0 / qcomp=0.70 / qpmin=0 / qpmax=69 / qpstep=4 / cplxblur=20.0 / qblur=0.5 / ip_ratio=1.40 / aq=1:1.00
Language : English
Encoded date : UTC 2017-09-07 09:21:03
Tagged date : UTC 2017-09-07 09:21:25
Color range : Limited
Color primaries : BT.709
Transfer characteristics : BT.709
Matrix coefficients : BT.709
Menus : 9,10

Video #2
ID : 10
Format : JPEG
Codec ID : jpeg
Duration : 1h 50mn
Bit rate mode : Variable
Bit rate : 838 bps
Width : 640 pixels
Height : 266 pixels
Display aspect ratio : 2.40:1
Frame rate mode : Variable
Frame rate : 0.003 fps
Minimum frame rate : 0.002 fps
Maximum frame rate : 0.006 fps
Color space : YUV
Chroma subsampling : 4:2:0
Bit depth : 8 bits
Compression mode : Lossy
Bits/(Pixel*Frame) : 1.641
Stream size : 682 KiB (0%)
Title : Chapter Images
Language : English
Default : No
Encoded date : UTC 2017-09-07 09:21:34
Tagged date : UTC 2017-09-07 09:21:35
Menu For : 1

Audio #1
ID : 2
Format : AAC
Format/Info : Advanced Audio Codec
Format profile : LC
Codec ID : 40
Duration : 1h 50mn
Bit rate mode : Variable
Bit rate : 157 Kbps
Maximum bit rate : 222 Kbps
Channel(s) : 2 channels
Channel positions : Front: L R
Sampling rate : 48.0 KHz
Frame rate : 46.875 fps (1024 SPF)
Compression mode : Lossy
Stream size : 124 MiB (2%)
Title : Russian Stereo
Language : Russian
Default : Yes
Alternate group : 1
Encoded date : UTC 2017-09-07 09:21:03
Tagged date : UTC 2017-09-07 09:21:25
Fallback From : 4
Subtitles : 6,7
Menus : 9

Audio #2
ID : 3
Format : AAC
Format/Info : Advanced Audio Codec
Format profile : LC
Codec ID : 40
Duration : 1h 50mn
Bit rate mode : Variable
Bit rate : 158 Kbps
Maximum bit rate : 238 Kbps
Channel(s) : 2 channels
Channel positions : Front: L R
Sampling rate : 48.0 KHz
Frame rate : 46.875 fps (1024 SPF)
Compression mode : Lossy
Stream size : 125 MiB (2%)
Title : English Stereo
Language : English
Default : No
Alternate group : 1
Encoded date : UTC 2017-09-07 09:21:03
Tagged date : UTC 2017-09-07 09:21:26
Fallback From : 5

Audio #3
ID : 4
Format : AC-3
Format/Info : Audio Coding 3
Format settings, Endianness : Big
Codec ID : ac-3
Duration : 1h 50mn
Bit rate mode : Constant
Bit rate : 384 Kbps
Channel(s) : 6 channels
Channel positions : Front: L C R, Side: L R, LFE
Sampling rate : 48.0 KHz
Frame rate : 31.250 fps (1536 SPF)
Bit depth : 16 bits
Compression mode : Lossy
Stream size : 302 MiB (4%)
Title : Russian DD 5.1
Language : Russian
Service kind : Complete Main
Default : Inherited From: 2
Alternate group : 1
Encoded date : UTC 2017-09-07 09:21:03
Tagged date : UTC 2017-09-07 09:21:09
Fallback To : 2
Subtitles : 6,7

Audio #4
ID : 5
Format : AC-3
Format/Info : Audio Coding 3
Format settings, Endianness : Big
Codec ID : ac-3
Duration : 1h 50mn
Bit rate mode : Constant
Bit rate : 640 Kbps
Channel(s) : 6 channels
Channel positions : Front: L C R, Side: L R, LFE
Sampling rate : 48.0 KHz
Frame rate : 31.250 fps (1536 SPF)
Bit depth : 16 bits
Compression mode : Lossy
Stream size : 504 MiB (7%)
Title : English DD 5.1
Language : English
Service kind : Complete Main
Default : No
Alternate group : 1
Encoded date : UTC 2017-09-07 09:21:03
Tagged date : UTC 2017-09-07 09:21:09
Fallback To : 3

Text #1
ID : 6
Format : Timed Text
Muxing mode : sbtl
Codec ID : tx3g
Duration : 1h 20mn
Bit rate mode : Variable
Bit rate : 2 bps
Stream size : 1.44 KiB (0%)
Title : Russian forced
Language : Russian
Default : Yes
Forced : Yes
Alternate group : 2
Encoded date : UTC 2017-09-07 09:21:03
Tagged date : UTC 2017-09-07 09:21:03
Subtitles For : 2,4
Full Alternative : 7

Text #2
ID : 7
Format : Timed Text
Muxing mode : sbtl
Codec ID : tx3g
Duration : 1h 41mn
Bit rate mode : Variable
Bit rate : 67 bps
Stream size : 50.2 KiB (0%)
Title : Russian full
Language : Russian
Default : No
Forced : No
Alternate group : 2
Encoded date : UTC 2017-09-07 09:21:03
Tagged date : UTC 2017-09-07 09:21:03
Subtitles For : 2,4
Forced Alternative : 6

Text #3
ID : 8
Format : Timed Text
Muxing mode : sbtl
Codec ID : tx3g
Duration : 1h 39mn
Bit rate mode : Variable
Bit rate : 46 bps
Stream size : 33.1 KiB (0%)
Title : English full
Language : English
Default : No
Forced : No
Alternate group : 2
Encoded date : UTC 2017-09-07 09:21:03
Tagged date : UTC 2017-09-07 09:21:03

Menu #1
00:00:00.000 : Chapter 1
00:08:17.789 : Chapter 2
00:13:18.339 : Chapter 3
00:19:30.961 : Chapter 4
00:24:39.436 : Chapter 5
00:28:53.273 : Chapter 6
00:35:40.639 : Chapter 7
00:39:35.456 : Chapter 8
00:46:59.358 : Chapter 9
00:50:57.096 : Chapter 10
00:56:49.239 : Chapter 11
01:00:43.265 : Chapter 12
01:08:57.133 : Chapter 13
01:16:03.017 : Chapter 14
01:19:37.690 : Chapter 15
01:23:15.532 : Chapter 16
01:26:26.181 : Chapter 17
01:33:34.400 : Chapter 18
01:37:02.859 : Chapter 19
01:39:47.857 : Chapter 20

Menu #2
ID : 9
Codec ID : text
Duration : 1h 50mn
Language : English
Encoded date : UTC 2017-09-07 09:21:26
Tagged date : UTC 2017-09-07 09:21:26
Menu For : 2,1
00:00:00.000 : Chapter 1
00:08:17.789 : Chapter 2
00:13:18.339 : Chapter 3
00:19:30.961 : Chapter 4
00:24:39.436 : Chapter 5
00:28:53.273 : Chapter 6
00:35:40.639 : Chapter 7
00:39:35.456 : Chapter 8
00:46:59.358 : Chapter 9
00:50:57.096 : Chapter 10
00:56:49.239 : Chapter 11
01:00:43.265 : Chapter 12
01:08:57.133 : Chapter 13
01:16:03.017 : Chapter 14
01:19:37.690 : Chapter 15
01:23:15.532 : Chapter 16
01:26:26.181 : Chapter 17
01:33:34.400 : Chapter 18
01:37:02.859 : Chapter 19
01:39:47.857 : Chapter 20
Bit rate mode : VBR
x264 [info]: frame I:920 Avg QP:18.44 size:166642
x264 [info]: frame P:35470 Avg QP:21.06 size: 59537
x264 [info]: frame B:121986 Avg QP:22.35 size: 35567
x264 [info]: consecutive B-frames: 2.9% 3.5% 9.7% 12.9% 13.2% 49.5% 3.8% 0.8% 0.8% 0.9% 0.8% 0.4% 0.3% 0.1% 0.1% 0.2% 0.2%
x264 [info]: mb I I16..4: 42.3% 44.4% 13.3%
x264 [info]: mb P I16..4: 11.6% 11.7% 1.2% P16..4: 45.5% 12.2% 8.8% 0.1% 0.0% skip: 8.8%
x264 [info]: mb B I16..4: 6.2% 1.4% 0.4% B16..8: 40.2% 6.5% 1.5% direct:10.1% skip:33.7% L0:46.4% L1:46.2% BI: 7.3%
x264 [info]: 8x8 transform intra:32.5% inter:50.5%
x264 [info]: direct mvs spatial:98.4% temporal:1.6%
x264 [info]: coded y,uvDC,uvAC intra: 87.2% 89.9% 77.3% inter: 31.1% 32.8% 13.4%
x264 [info]: i16 v,h,dc,p: 16% 5% 54% 26%
x264 [info]: i8 v,h,dc,ddl,ddr,vr,hd,vl,hu: 7% 6% 10% 10% 15% 13% 14% 12% 13%
x264 [info]: i4 v,h,dc,ddl,ddr,vr,hd,vl,hu: 8% 8% 19% 8% 11% 11% 12% 10% 14%
x264 [info]: i8c dc,h,v,p: 53% 17% 15% 15%
x264 [info]: Weighted P-Frames: Y:4.2% UV:2.9%
x264 [info]: ref P L0: 48.1% 8.6% 28.7% 13.5% 1.0% 0.0%
x264 [info]: ref B L0: 78.2% 18.0% 3.8%
x264 [info]: ref B L1: 90.9% 9.1%
x264 [info]: kb/s:7997.69
Apple TV, iPad, iPhone, iPod Touch.
Windows VLC media player

 ·  , , FAQ-
:  [ 07--2017 13:12 ]

  

.torrent

.torrent 72 KB


: 7.19 GB
(hash) : dffaa3d8b8583247565483014c94ef9aaa6ddb
··
...

, [ATV3] The Mummy

S L
(iPhone/iPod Touch/iPad) ·· [ATV3] / The Mummy ( / Alex Kurtzman ) [2017, , , , , , WEB-DL, HD (1080p)] DUB Galfimbul 42772047433.98 GB 4 0 1501719157

03:12

3--17

[ATV3] The Mummy . !

!