Скачать через торрент Тико и Нанами бесплатно Аниме Все серии на русском torrent

Если у вас наблюдаются проблемы со скриншотами, переходом по ссылками, скачиванием торрентов - проблемы в блокировщике рекламы AdBlock. #хорошегоДня!


Статистика раздачи
Размер:  4.79 GB   |    Зарегистрирован:  2 месяца 13 дней   |    .torrent скачан:  5 раз   |   
Раздают:  1  
   
Загрузка...
 
Автор Сообщение

Galfimbul

avatar Galfimbul


Тико и Нанами (Семь морей Тико) / Nanatsu no Umi no Tico / Tico of the Seven Seas

Страна: Япония
Год выпуска: 1994 г.
Жанр: приключения
Тип: TV
Продолжительность: 25 мин
Режиссер: Такаги Дзюн
Студия: Nippon ANimation

Описание: Нанами Симпсон — девочка 11 лет. Её мать умерла, когда она была совсем маленькой, и она живёт со своим отцом, Скоттом Симпсоном, на борту морского научно-исследовательского судна «Пеперончино». Её отец, морской биолог, ищет существо, известное как Светящийся Кит. Когда он находит кости одного из них, он, опечаленный, решает изменить свою миссию и сделать целью своей жизни сохранение этих существ. Нанами дружит с косаткой, которую она назвала Тико, и плавает с ней каждый день. В конце концов, она учится дышать под водой, чем поражает своего отца. Однажды Нанами чуть не утонула, но один из светящехся китов спас её от верной смерти, и её отец, наконец смог увидеть его.

07.09.2017 - 14 и 15 серии. Обновите торрент. Проект возобновлен, даббер наконец приобрел микрофон.

Качество: DVDRip
Тип релиза: Без хардсаба
Формат видео: AVI
Видео: XVid, 640х480, 1700 kbps, 23.976 fps
Аудио: mp3, 128 kbps 44,1 kHz Язык Русский (в составе контейнера) ; Озвучка: одноголосая, KeitAndersenn (женский)
Общее
Полное имя : D:\Мои раздачи\Семь морей Тико\семь морей Тико_1.avi
Формат : AVI
Формат/Информация : Audio Video Interleave
Размер файла : 327 Мбайт
Продолжительность : 23 м.
Общий поток : 1935 Кбит/сек

Видео
Идентификатор : 0
Формат : MPEG-4 Visual
Параметр BVOP формата : 1
Параметр QPel формата : Нет
Параметр GMC формата : Без точки перехода
Параметр матрицы формата : Default (H.263)
Идентификатор кодека : DX50
Идентификатор кодека/Подсказка : DivX 5
Продолжительность : 23 м.
Битрейт : 1797 Кбит/сек
Ширина : 640 пикселей
Высота : 480 пикселей
Соотношение сторон : 4:3
Частота кадров : 23,976 кадра/сек
Цветовое пространство : YUV
Субдискретизация насыщенности : 4:2:0
Битовая глубина : 8 бит
Тип развёртки : Прогрессивная
Метод сжатия : С потерями
Бит/(Пиксели*Кадры) : 0.244
Размер потока : 304 Мбайт (93%)
Библиотека кодирования : DivX 1988n

Аудио
Идентификатор : 1
Формат : MPEG Audio
Версия формата : Version 1
Профиль формата : Layer 3
Идентификатор кодека : 55
Идентификатор кодека/Подсказка : MP3
Продолжительность : 23 м.
Продолжительность оригинала : 23 м.
Вид битрейта : Постоянный
Битрейт : 128 Кбит/сек
Каналы : 2 канала
Частота : 44,1 КГц
Метод сжатия : С потерями
Размер потока : 21,6 Мбайт (7%)
Выравнивание : Соединение по промежуткам
Продолжительность промежутка : 42 мс. (1,00 видеокадр)
Библиотека кодирования : LAME3.98r
Настройки программы : -m s -V 4 -q 3 -lowpass 17 -b 128
1. Девочка и косатка
2. Пираты Карибского моря гонятся за ребенком?
3. Появление атлантической мафии?
4. Беги, беги, просто убегай!
5. Рио-де-Жанейро не спит
6. День, когда мы встретили синего кита
7. Томас один-одинешенек на дне Атлантического океана
8. Затонувший корабль в реке Заир. Тайна сокровища
9. Корабль-призрак с подземного озера
10. Пеперончино сбегает на землю!
11. Принцесса Нанами. Мечта Эгейского моря
12. Другая Нанами и благословенная семья
13. Худший день мистера Томаса
14. Невероятно! Бабушка Ала с острова Сицилия!
15. Поразительный союз! Нанами танцует в небе!
...3937407 - наличие озвучки


Трекер:  [ 07-Сен-2017 13:01 ]

  

Скачать .torrent

Размер .torrent файла 13 KB


Размер: 4.79 GB
Хэш (hash) релиза: 91cb19048b0c4080a101561f255e62e1e45d4e5a
Подписка на обновления:

Торренты, похожие на Тико и Нанами скачать торрент

Форум Название Автор Размер S L Добавлен
Аниме | Rips ·· Тико и Нанами (Семь морей Тико) / Nanatsu no Umi no Tico / Tico of the Seven Seas [TV] [13 из 40] [Без хардсаба] [RUS(int)] [1994, приключения, DVDRip] [HWP] Galfimbul 44567305504.15 GB 0 0 1481891763

15:36

16-Дек-16

Аниме | Rips ·· Тико и Нанами (Семь морей Тико) / Nanatsu no Umi no Tico / Tico of the Seven Seas [TV] [10 из 40] [Без хардсаба] [RUS(int)] [1994, приключения, DVDRip] [HWP] Galfimbul 34254323783.19 GB 0 0 1480767088

15:11

3-Дек-16

Аниме | Rips ·· Тико и Нанами (Семь морей Тико) / Nanatsu no Umi no Tico / Tico of the Seven Seas [TV] [9 из 40] [Без хардсаба] [RUS(int)] [1994, приключения, DVDRip] [HWP] Galfimbul 30804886322.87 GB 0 0 1480067761

12:56

25-Ноя-16

Аниме | Rips ·· Тико и Нанами (Семь морей Тико) / Nanatsu no Umi no Tico / Tico of the Seven Seas [TV] [7 из 40] [Без хардсаба] [RUS(int)] [1994, приключения, DVDRip] [HWP] Galfimbul 27372543842.55 GB 0 0 1479882335

09:25

23-Ноя-16

Аниме | Rips ·· Тико и Нанами (Семь морей Тико) / Nanatsu no Umi no Tico / Tico of the Seven Seas [TV] [2 из 40] [Без хардсаба] [RUS(int)] [1994 г., приключения, DVDRip] Galfimbul 685154356653 MB 0 0 1346401320

11:22

31-Авг-12

Еще никто не оставлял запись к записи скачать торрент Тико и Нанами . Будь первым!

!Обратная связь