Скачать через торрент Подводная эра Deep Фильм бесплатно в хорошем качестве torrent

Скачивайте на UnionPeer.org фильмы через торрент без регистрации. Новинки кино в хорошем качестве через торрент. На UnionPeer.org можно скачать через торрент фильмы 2014 и 2015 годов. Самые новые фильмы.

Скачать торрент Подводная эра Deep бесплатно через .torrent фильм мультфильм сериал

Если у вас наблюдаются проблемы со скриншотами, переходом по ссылками, скачиванием торрентов - проблемы в блокировщике рекламы AdBlock. #хорошегоДня!


Статистика раздачи
Размер:  1.45 GB   |    Зарегистрирован:  18 дней   |    .torrent скачан:  21 раз   |   
Раздают:  1  
   
Загрузка...
 
Автор Сообщение

Galfimbul

avatar Galfimbul


Подводная эра / Deep
Страна: США, Испания, Бельгия
Жанр: мультфильм, комедия, приключения, семейный
Год выпуска: 2017
Продолжительность: 01:32:38Перевод: Профессиональный (дублированный) iTunes
Субтитры: нет
Оригинальная аудиодорожка: нетРежиссёр: Джулио Сото Гарпид / Julio Soto GurpideРоли озвучивали: Джастин Фелбингер, Линдси Алена, Стивен Хьюз, Льюис Маклауд, Джесс Харнелл, Фил ЛаМарр, Джефф Беннетт, Дэйв Фенной, Боб Берген, Джен ТейлорОписание: Сюжет мультфильма развивается в далеком будущем, когда в результате глобальной экологической катастрофы, случившейся по вине человека, вся Земля ушла под воду. Катастрофа сказалась и на обитателях морских глубин. Кракену - разумному осьминогу-гримпотевтису удалось спастись самому и спасти некоторых обитателей. Найдя безопасное место, и, укрывшись там, они смогли выжить. И все было бы ничего, если бы главные герои - молодой осьминог Дип - внук Кракена и его друзья - рыба-удильщик Иво и креветка Эллис своими шалостями не подвергли смертельной опасности жителей этого места, всех их просто замуровало. И, кажется, спасения ждать неоткуда, но мудрый Кракен знает, что у них остался один шанс. Вся их надежда на белого кита Нейтана, способного помочь. Теперь компания нашкодивших друзей должна отправиться на поиски Нейтана, следуя ориентирам, полученным от Кракена. Качество: WEB-DLRip-AVC / Deep.2017.WEB-DL.1080p
Формат: MKVВидео: MPEG-4 AVC, 1024x552 (1.85:1), 23.976 fps, ~1862 kbps avg, 0.137 bit/pixel
Аудио: 48 kHz, AC3 Dolby Digital, 3/2 (L,C,R,l,r) + LFE ch, ~384 kbps avg
Complete name : D:\Раздачи\Подводная эра (2017) WEB-DLRip-AVC_ivanes20031987.mkv
Format : Matroska
Format version : Version 2
File size : 1.45 GiB
Duration : 1 h 32 min
Overall bit rate : 2 246 kb/s
Encoded date : UTC 2017-09-06 20:12:00
Writing application : mkvmerge v7.8.0 ('River Man') 32bit built on Apr 3 2015 12:11:22
Writing library : libebml v1.3.1 + libmatroska v1.4.2

Video
ID : 1
Format : AVC
Format/Info : Advanced Video Codec
Format profile : High@L4.1
Format settings, CABAC : Yes
Format settings, RefFrames : 12 frames
Codec ID : V_MPEG4/ISO/AVC
Duration : 1 h 32 min
Bit rate : 1 862 kb/s
Width : 1 024 pixels
Height : 552 pixels
Display aspect ratio : 1.85:1
Frame rate mode : Constant
Frame rate : 23.976 (24000/1001) FPS
Color space : YUV
Chroma subsampling : 4:2:0
Bit depth : 8 bits
Scan type : Progressive
Bits/(Pixel*Frame) : 0.137
Stream size : 1.18 GiB (81%)
Writing library : x264 core 152 r2851kMod ba24899
Encoding settings : cabac=1 / ref=12 / deblock=1:-2:-1 / analyse=0x3:0x113 / me=umh / subme=10 / psy=1 / fade_compensate=0.00 / psy_rd=1.00:0.00 / mixed_ref=1 / me_range=32 / chroma_me=1 / trellis=2 / 8x8dct=1 / cqm=0 / deadzone=21,11 / fast_pskip=0 / chroma_qp_offset=-2 / threads=12 / lookahead_threads=3 / sliced_threads=0 / nr=0 / decimate=0 / interlaced=0 / bluray_compat=0 / constrained_intra=0 / bframes=12 / b_pyramid=2 / b_adapt=2 / b_bias=0 / direct=1 / weightb=1 / open_gop=0 / weightp=2 / keyint=240 / keyint_min=23 / scenecut=40 / intra_refresh=0 / rc_lookahead=40 / rc=2pass / mbtree=0 / bitrate=1862 / ratetol=1.0 / qcomp=0.60 / qpmin=0 / qpmax=69 / qpstep=4 / cplxblur=20.0 / qblur=0.5 / vbv_maxrate=50000 / vbv_bufsize=62500 / nal_hrd=none / filler=0 / ip_ratio=1.40 / pb_ratio=1.30 / aq=1:1.00
Default : Yes
Forced : No

Audio
ID : 2
Format : AC-3
Format/Info : Audio Coding 3
Format settings, Endianness : Big
Codec ID : A_AC3
Duration : 1 h 32 min
Bit rate mode : Constant
Bit rate : 384 kb/s
Channel(s) : 6 channels
Channel positions : Front: L C R, Side: L R, LFE
Sampling rate : 48.0 kHz
Frame rate : 31.250 FPS (1536 SPF)
Bit depth : 16 bits
Compression mode : Lossy
Stream size : 254 MiB (17%)
Service kind : Complete Main
Default : Yes
Forced : No


Трекер:  [ 06-Сен-2017 23:36 ]

  

Скачать .torrent

Размер .torrent файла 15 KB


Размер: 1.45 GB
Хэш (hash) релиза: 45f459ff4f46f7f4cfa2903dad61210bf8728f15
Подписка на обновления:

Торренты, похожие на Подводная эра Deep скачать торрент

Форум Название Автор Размер S L Добавлен
Мультфильмы 2016-2017 (Новинки мультфильмов) ·· Подводная эра / Deep (Джулио Сото Гарпид) [2017 г., мультфильм, комедия, приключения, семейный, WEB-DLRip] iTunes Galfimbul 15879217121.48 GB 3 0 1505364703

07:51

14-Сен-17

Мультфильмы до 2016 ·· Подводная эра / Deep (Джулио Сото Гарпид / Julio Soto Gurpide) [2017, США, Испания, Бельгия, мультфильм, комедия, приключения, семейный, WEB-DL 1080p] 2x Dub (Rus, Ukr) Galfimbul 39099320333.64 GB 0 0 1504438678

14:37

3-Сен-17

Мультфильмы 2016-2017 (Новинки мультфильмов) ·· Подводная эра / Deep (Джулио Сото Гарпид) [2017 г., мультфильм, комедия, приключения, семейный, WEB-DLRip-AVC] Galfimbul 17506867011.63 GB 2 0 1504410619

06:50

3-Сен-17

Мультфильмы 2016-2017 (Новинки мультфильмов) ·· Подводная эра / Deep (Джулио Сото Гарпид) [2017 г., мультфильм, комедия, приключения, семейный, WEB-DL 720p] Galfimbul 32119124272.99 GB 5 0 1504408215

06:10

3-Сен-17

Мультфильмы 2016-2017 (Новинки мультфильмов) ·· Подводная эра / Deep (Джулио Сото Гарпид) [2017 г., мультфильм, комедия, приключения, семейный, WEB-DLRip] Galfimbul 14666895361.37 GB 0 0 1504407089

05:51

3-Сен-17

Мультфильмы 2016-2017 (Новинки мультфильмов) ·· Подводная эра / Deep (Джулио Сото Гарпид) [2017 г., мультфильм, комедия, приключения, семейный, WEB-DLRip] Galfimbul 784152576748 MB 0 0 1504362029

17:20

2-Сен-17

Еще никто не оставлял запись к записи скачать торрент Подводная эра Deep . Будь первым!

!Обратная связь