Скачать через торрент Защита Метлиной Фильм бесплатно в хорошем качестве torrent

Скачивайте на UnionPeer.org фильмы через торрент без регистрации. Новинки кино в хорошем качестве через торрент. На UnionPeer.org можно скачать через торрент фильмы 2014 и 2015 годов. Самые новые фильмы.

Скачать торрент Защита Метлиной бесплатно через .torrent фильм мультфильм сериал

Если у вас наблюдаются проблемы со скриншотами, переходом по ссылками, скачиванием торрентов - проблемы в блокировщике рекламы AdBlock. #хорошегоДня!


Статистика раздачи
Размер:  8.48 GB   |    Зарегистрирован:  18 дней   |    .torrent скачан:  0 раз   |   
Раздают:  1  
   
Загрузка...
 
Автор Сообщение

Galfimbul

avatar Galfimbul


«Защита Метлиной»

Дата эфира: 26.09.2013-04.02.2014
Страна: Россия
Жанр: Документальный
Продолжительность: по ~48 мин.
Режиссер: ...
Ведущая: Наталия Метлина
Перевод: Не требуется
Русские субтитры: нет
Производство: ООО «ИМГ-медиа»

Описание: Наталия Метлина борется против несправедливости, правового произвола, жестокости и равнодушия, с которыми зачастую сталкиваются самые обычные люди. Каждая программа будет состоять из трех отдельных сюжетов о судьбах тех, кто попал в сложную ситуацию. «Защита Метлиной» – журналистика прямого действия. Это не просто рассказ, а попытка решить проблему.

Пишите нам: metlina@5-tv.ru
Наталия Метлина – признанный мастер бескомпромиссного телевизионного расследования. Докапываться до правды и выводить на чистую воду преступников всех мастей она начала в середине «лихих девяностых». С тех пор за Наталией прочно закрепилась слава жесткой, принципиальной и правдивой. Она успела поработать на крупнейших федеральных телеканалах. Свой новый авторский проект Наталия предпочла создавать в сотрудничестве с Пятым каналом, одним из лидеров современного российского телевидения.

Наталия Метлина, автор и ведущая программы «Защита Метлиной»:
«Я признательна Пятому каналу за возможность показать жизнь страны такой, какая она есть. «Защита Метлиной» – благодарный проект, где не нужно врать, лукавить, подтасовывать факты, закрывать на что-то глаза, как делают сейчас многие. Может быть, это прозвучит амбициозно, но я ставлю перед своей командой задачу защитить тех, кто не может самостоятельно добиться справедливости. Мы будем стучать в двери чиновников, полицейских, прокуроров и заставлять их делать свою работу. Можно сколь угодно долго говорить общими словами, например, на тему коррупции, и все в пустоту. Мы же начнем действовать, кричать в конкретно взятое ухо. А если и этот крик не услышат – будем «бить».

Пятый канал ориентирован на формирование в обществе атмосферы социального оптимизма, уважительного чувства к закону и ощущения торжества справедливости. Премьеры юбилейного телесезона также будут способствовать решению этих важных задач. Член Академии Российского телевидения, лауреат премии ТЭФИ, Наталия Метлина, как никто другой, знает, как превратить телеэфир в разящий инструмент борьбы с беззаконием. Формат программы «Защита Метлиной» и ее конечная цель отлично гармонируют с социальной миссией Пятого, выраженной в эфирном слогане «Зло будет наказано».
Релиз группы:

Качество:SATRip
Формат: AVI
Видео: 704x448 (1.57:1), 25 fps, DivX 6.9.2 ~1579 kbps, 0.20 bit/pixel
Аудио: 48 kHz, MPEG Layer 3, 2 ch, ~128 kbps
Общее
Полное имя : F:\Torrents\Zaszita_Metlinoj_(5_kanal)_[rutracker.org]\01_ZM-Tri_istorii-26.09.2013.avi
Формат : AVI
Формат/Информация : Audio Video Interleave
Размер файла : 590 Мбайт
Продолжительность : 48 м.
Общий поток : 1717 Кбит/сек
Программа кодирования : VirtualDubMod 1.6.0.0 SURROUND (build 2560/release)
Библиотека кодирования : VirtualDubMod build 2560/release

Видео
Идентификатор : 0
Формат : MPEG-4 Visual
Параметр BVOP формата : 1
Параметр QPel формата : Нет
Параметр GMC формата : Без точки перехода
Параметр матрицы формата : Default (H.263)
Идентификатор кодека : DX50
Идентификатор кодека/Подсказка : DivX 5
Продолжительность : 48 м.
Битрейт : 1579 Кбит/сек
Ширина : 704 пикселя
Высота : 448 пикселей
Соотношение сторон : 5:4
Соотношение сторон в оригинале : 1,571
Частота кадров : 25,000 кадров/сек
Цветовое пространство : YUV
Субдискретизация насыщенности : 4:2:0
Битовая глубина : 8 бит
Тип развёртки : Прогрессивная
Метод сжатия : С потерями
Бит/(Пиксели*Кадры) : 0.200
Размер потока : 543 Мбайт (92%)
Библиотека кодирования : DivX 6.8.5 (UTC 2009-08-20)

Аудио
Идентификатор : 1
Формат : MPEG Audio
Версия формата : Version 1
Профиль формата : Layer 3
Режим : Joint stereo
Расширение режима : MS Stereo
Идентификатор кодека : 55
Идентификатор кодека/Подсказка : MP3
Продолжительность : 48 м.
Вид битрейта : Постоянный
Битрейт : 128 Кбит/сек
Каналы : 2 канала
Частота : 48,0 КГц
Метод сжатия : С потерями
Размер потока : 44,0 Мбайт (7%)
Выравнивание : Разделение по промежуткам
Продолжительность промежутка : 40 мс. (1,00 видеокадр)
Время предзагрузки промежутка : 500 мс.
Библиотека кодирования : LAME3.99r
Настройки программы : -m j -V 4 -q 3 -lowpass 17 -b 128
01. Три истории (эфир_26.09.2013):
Сегодня мы защищам Ирину Сысоеву, Олега Трифонова и Анну Линник...
Имя файла: 01_ZM-Tri_istorii-26.09.2013.avi

02. Три истории-2 (эфир_03.10.2013):
Сегодня мы защищам Александра Попова, Руслана Вахапова и Наталью Виноградову...
Имя файла: 02_ZM-Tri_istorii_2-03.10.2013.avi

03. Три истории-3 (эфир_10.10.2013):
Сегодня мы защищам Полину и Глеба Агеевых, пациентов доктора Кирилловой, Валентину Рыкову...
Имя файла: 03_ZM-Tri_istorii_3-10.10.2013.avi

04. Две истории-4 (эфир_17.10.2013):
Сегодня мы защищам Руслана Курашова и Алексея Пастухова жителей города Белгорода ...
Имя файла: 04_ZM-Tri_istorii_4-17.10.2013_IPTVRip.avi

05. Три истории-5 (эфир_25.10.2013):
Сегодня мы защищам Наталью Шандову, Владимира Крутова и жителей "недостроя" города Бердск...
Имя файла: 05_ZM-Tri_istorii_5-25.10.2013.avi

06. Три истории-6 (эфир_31.10.2013):
Сегодня мы защищам Татьяну Серебренникову из Сычёво и Забира Исмагилова...?
Имя файла: 06_ZM-Tri_istorii_6-31.10.2013.avi

07. Три истории-7 (эфир_07.11.2013):
Сегодня мы защищам Александра Алексеева, Татьяну Котову и жертв парапсихологов из Нижнего Новгорода...?
Имя файла: 07_ZM-Tri_istorii_6-07.11.2013.avi

08. Три истории-8 (эфир_14.11.2013):
Сегодня мы защищам Александра Шихова, Елену Полякову и группу ижевских студентов, которые своими жизнями расплачиваются...
Имя файла: 08_ZM-Tri_istorii_8-14.11.2013.avi

09. Три истории-9 (эфир_21.11.2013):
Сегодня мы защищам ...
Имя файла: 09_ZM-Tri_istorii_9-21.11.2013.avi

10. Три истории-10 (эфир_28.11.2013):
Сегодня мы защищам ...
Имя файла: 10_ZM-Tri_istorii_10-28.11.2013.avi

11. Три истории-11 (эфир_05.12.2013):
Сегодня мы защищам ...
Имя файла: 11_ZM-Tri_istorii_05.12.2013.avi

12. Три истории-12 (эфир_12.12.2013):
Сегодня мы защищам ...
Имя файла: 12_ZM-Tri_istorii_12.12.2013.avi

13. Три истории-13 (эфир_19.12.2013):
Сегодня мы защищам ...
Имя файла: 13_ZM-Tri_istorii_19.12.2013.avi

14. Три истории-14 (эфир_26.12.2013):
Сегодня мы защищам ...
Имя файла: 14_ZM-Tri_istorii_26.12.2013.avi
15. Три истории-15 (эфир_04.02.2014):
Сегодня мы защищам ...
Имя файла: 15_ZM-Tri_istorii_04.02.2014.avi
Добавил: 15. Три истории-15 (эфир_04.02.2014). Пожалуйста, обновите торрент-файл.
На раздаче круглосуточно, ~20 Mb/s. > [Что от меня зависит, сделал. Остальное зависит от Вас, трекера и наших провайдеров.]

Трекер:  [ 06-Сен-2017 19:42 ]

  

Скачать .torrent

Размер .torrent файла 44 KB


Размер: 8.48 GB
Хэш (hash) релиза: dcfbf44f0223e5f7cf56e75736af343fb02613fc
Подписка на обновления:

Еще никто не оставлял запись к записи скачать торрент Защита Метлиной . Будь первым!

!Обратная связь