Скачать через торрент [iPad] Пробуждение Зодиака Awakening the Zodiac бесплатно русская версия torrent активатор

Если у вас наблюдаются проблемы со скриншотами, переходом по ссылками, скачиванием торрентов - проблемы в блокировщике рекламы AdBlock. #хорошегоДня!


Статистика раздачи
Размер:  1.72 GB   |    Зарегистрирован:  2 месяца 14 дней   |    .torrent скачан:  14 раз   |   
Раздают:  1  
   
Загрузка...
 
Автор Сообщение

Galfimbul

avatar Galfimbul


Пробуждение Зодиака / Awakening the Zodiac
-

4.735 / 10 / 10
Год выпуска: 2017
Страна: Канада
Жанр: Триллер
Продолжительность: 01:40:00

Перевод: Многоголосый закадровый (iTunes)
Оригинальная аудиодорожка: Есть
Cубтитры: Русские, Английские, Украинские
Режиссёр: Джонатан Райт
Сценарий: Jennifer Archer, Mike Horrigan, Джонатан Райт
Продюсер: Майкл Бэйкер, Джефф Сэкман, Аарон Барнетт
Оператор: Борис Мойсовски
Композитор: Марк Корвен
Художник: Aer Agrey, Дженнифер Страуд
Монтаж: Марк Арчери
В ролях: Шейн Уэст, Лесли Бибб, Мэтт Крэйвен, Стивен МакХэтти, Николас Кэмпбелл, Кеннет Уэлш, Джейсон Хук, Джон Брегар, Ева Линк, Jennie Esnard

Мировая премьера: 9 июня 2017

Описание: У семейной пары Мика и Зои плачевное финансовое положение — они живут в трейлере, и Мик перебивается случайными подработками. Однажды к ним в руки попадают старые киноплёнки, которые оказываются снятыми известным серийным убийцей Зодиаком. Тот орудовал в конце 60-х годов в Сан-Франциско и так и не был пойман. Прельстившись наградой в 100000 долларов, они не относят плёнки в полицию, а вместе с другом, содержащим ломбард, пытаются вычислить Зодиака самостоятельно.Качество исходника: WEB-DL 1080p
Качество: WEB-DLRip
Тип: SD (576p)
Контейнер: M4V
Видео: H.264, 1024x432, 2.40:1, 2 200 Kbps, 23.976 fps

Аудио 1: Русский/Многоголосый закадровый (iTunes), AAC / 2.0 / 128 Kbps / 48.0 KHz
Аудио 2: Английский/Оригинальная дорожка , AAC / 2.0 / 128 Kbps / 48.0 KHz

Субтитры 1: Русские полные
Субтитры 2: Английские полные
Субтитры 3: Украинские полные
Sort Name: Awakening the Zodiac
XID: Apple:vendor_id:2017-1032767
contentID: 1226891820
Screenwriters: Jennifer Archer, Mike Horrigan, Джонатан Райт
Producers: Майкл Бэйкер, Джефф Сэкман, Аарон Барнетт
Director: Джонатан Райт
Cast: Шейн Уэст, Лесли Бибб, Мэтт Крэйвен, Стивен МакХэтти, Николас Кэмпбелл, Кеннет Уэлш, Джейсон Хук, Джон Брегар, Ева Линк, Jennie Esnard
Studio: Bunk 11 Pictures
Rating: 5
Long Description: У семейной пары Мика и Зои плачевное финансовое положение - они живут в трейлере, и Мик перебивается случайными подработками. Однажды к ним в руки попадают старые киноплёнки, которые оказываются снятыми известным серийным убийцей Зодиаком. Тот орудовал в конце 60-х годов в Сан-Франциско и так и не был пойман. Прельстившись наградой в 100000 долларов, они не относят плёнки в полицию, а вместе с другом, содержащим ломбард, пытаются вычислить Зодиака самостоятельно.
Description: У семейной пары Мика и Зои плачевное финансовое положение - они живут в трейлере, и Мик перебивается случайными подработками. Однажды к ним в руки попадают старые киноплёнки, которые оказываются снятыми известным серийным убийцей Зодиаком. Тот орудовал в конце 60-х годов в Сан-Франциско и так и не был пойман. Прельстившись наградой в 100000 долларов, они не относят плёнки в полицию, а вместе с другом, содержащим ломбард, пытаются вычислить Зодиака самостоятельно.
Release Date: 2017-06-09T08:00:00Z
Genre: Horror
Artist: Jonathan Wright
Name: Awakening the Zodiac
General
Complete name : /Users/imac/HandBrake/Awakening.the.Zodiac.(SD).(pk).m4v
Format : MPEG-4
Codec ID : M4V
File size : 1.72 GiB
Duration : 1h 40mn
Overall bit rate mode : Variable
Overall bit rate : 2 458 Kbps
Movie name : Awakening the Zodiac
Performer : Jonathan Wright
Director : Джонатан Райт
Actor : Шейн Уэст / Лесли Бибб / Мэтт Крэйвен / Стивен МакХэтти / Николас Кэмпбелл / Кеннет Уэлш / Джейсон Хук / Джон Брегар / Ева Линк / Jennie Esnard
Screenplay by : Jennifer Archer / Mike Horrigan / Джонатан Райт
Producer : Майкл Бэйкер / Джефф Сэкман / Аарон Барнетт
Production studio : Bunk 11 Pictures
Genre : Horror
ContentType : Short Film
Description : У семейной пары Мика и Зои плачевное финансовое положение - они живут в трейлере, и Мик перебивается случайными подработками. Однажды к ним в руки попадают старые киноплёнки, которые оказываются снятыми известным серийным убийцей Зодиаком. Тот орудовал в конце 60-х годов в Сан-Франциско и так и не был пойман. Прельстившись наградой в 100000 долларов, они не относят плёнки в полицию, а вместе с другом, содержащим ломбард, пытаются вычислить Зодиака самостоятельно.
Recorded date : UTC 2017-06-09 08:00:00
Encoded date : UTC 2017-09-06 13:41:39
Tagged date : UTC 2017-09-06 13:56:53
Cover : Yes
Rating : None
Title/Sort : Awakening the Zodiac
LongDescription : У семейной пары Мика и Зои плачевное финансовое положение - они живут в трейлере, и Мик перебивается случайными подработками. Однажды к ним в руки попадают старые киноплёнки, которые оказываются снятыми известным серийным убийцей Зодиаком. Тот орудовал в конце 60-х годов в Сан-Франциско и так и не был пойман. Прельстившись наградой в 100000 долларов, они не относят плёнки в полицию, а вместе с другом, содержащим ломбард, пытаются вычислить Зодиака самостоятельно.
AppleStoreCatalogID : 1226891820
Vendor : Apple:vendor_id:2017-1032767
ContentRating : mpaa|R|400|

Video #1
ID : 1
Format : AVC
Format/Info : Advanced Video Codec
Format profile : High@L3.1
Format settings, CABAC : Yes
Format settings, ReFrames : 9 frames
Codec ID : avc1
Codec ID/Info : Advanced Video Coding
Duration : 1h 40mn
Source duration : 1h 40mn
Bit rate : 2 200 Kbps
Width : 1 024 pixels
Height : 432 pixels
Display aspect ratio : 2.40:1
Frame rate mode : Variable
Frame rate : 23.976 fps
Minimum frame rate : 23.974 fps
Maximum frame rate : 23.981 fps
Color space : YUV
Chroma subsampling : 4:2:0
Bit depth : 8 bits
Scan type : Progressive
Bits/(Pixel*Frame) : 0.207
Stream size : 1.54 GiB (89%)
Source stream size : 1.54 GiB (89%)
Title : Main Program
Writing library : x264 core 148 r2708 86b7198
Encoding settings : cabac=1 / ref=9 / deblock=1:0:0 / analyse=0x3:0x113 / me=umh / subme=9 / psy=1 / psy_rd=1.00:0.00 / mixed_ref=1 / me_range=32 / chroma_me=1 / trellis=1 / 8x8dct=1 / cqm=0 / deadzone=21,11 / fast_pskip=1 / chroma_qp_offset=-2 / threads=13 / lookahead_threads=1 / sliced_threads=0 / nr=0 / decimate=1 / interlaced=0 / bluray_compat=0 / constrained_intra=0 / bframes=6 / b_pyramid=2 / b_adapt=2 / b_bias=0 / direct=1 / weightb=1 / open_gop=0 / weightp=2 / keyint=240 / keyint_min=24 / scenecut=40 / intra_refresh=0 / rc_lookahead=40 / rc=2pass / mbtree=1 / bitrate=2200 / ratetol=1.0 / qcomp=0.60 / qpmin=0 / qpmax=69 / qpstep=4 / cplxblur=20.0 / qblur=0.5 / ip_ratio=1.40 / aq=1:1.00
Language : English
Encoded date : UTC 2017-09-06 13:41:39
Tagged date : UTC 2017-09-06 13:41:43
Color range : Limited
Color primaries : BT.709
Transfer characteristics : BT.709
Matrix coefficients : BT.709

Video #2
ID : 8
Format : JPEG
Codec ID : jpeg
Duration : 1h 40mn
Bit rate mode : Variable
Bit rate : 702 bps
Width : 640 pixels
Height : 270 pixels
Display aspect ratio : 2.40:1
Frame rate mode : Variable
Frame rate : 0.003 fps
Minimum frame rate : 0.002 fps
Maximum frame rate : 0.004 fps
Color space : YUV
Chroma subsampling : 4:2:0
Bit depth : 8 bits
Compression mode : Lossy
Bits/(Pixel*Frame) : 1.354
Stream size : 457 KiB (0%)
Title : Chapter Images
Language : English
Encoded date : UTC 2017-09-06 13:41:49
Tagged date : UTC 2017-09-06 13:41:49

Audio #1
ID : 2
Format : AAC
Format/Info : Advanced Audio Codec
Format profile : LC
Codec ID : 40
Duration : 1h 40mn
Bit rate mode : Variable
Bit rate : 125 Kbps
Maximum bit rate : 200 Kbps
Channel(s) : 2 channels
Channel positions : Front: L R
Sampling rate : 48.0 KHz
Compression mode : Lossy
Stream size : 89.5 MiB (5%)
Title : Russian Stereo
Language : Russian
Encoded date : UTC 2017-09-06 13:41:39
Tagged date : UTC 2017-09-06 13:41:46

Audio #2
ID : 3
Format : AAC
Format/Info : Advanced Audio Codec
Format profile : LC
Codec ID : 40
Duration : 1h 40mn
Bit rate mode : Variable
Bit rate : 125 Kbps
Maximum bit rate : 217 Kbps
Channel(s) : 2 channels
Channel positions : Front: L R
Sampling rate : 48.0 KHz
Compression mode : Lossy
Stream size : 89.4 MiB (5%)
Title : English Stereo
Language : English
Encoded date : UTC 2017-09-06 13:41:39
Tagged date : UTC 2017-09-06 13:41:46

Text #1
ID : 4
Format : Timed Text
Muxing mode : sbtl
Codec ID : tx3g
Duration : 1h 39mn
Bit rate mode : Variable
Bit rate : 81 bps
Stream size : 59.6 KiB (0%)
Title : Russian full
Language : Russian
Encoded date : UTC 2017-09-06 13:41:39
Tagged date : UTC 2017-09-06 13:41:40

Text #2
ID : 5
Format : Timed Text
Muxing mode : sbtl
Codec ID : tx3g
Duration : 1h 37mn
Bit rate mode : Variable
Bit rate : 55 bps
Stream size : 39.2 KiB (0%)
Title : English full
Language : English
Encoded date : UTC 2017-09-06 13:41:39
Tagged date : UTC 2017-09-06 13:41:40

Text #3
ID : 6
Format : Timed Text
Muxing mode : sbtl
Codec ID : tx3g
Duration : 1h 39mn
Bit rate mode : Variable
Bit rate : 78 bps
Stream size : 57.1 KiB (0%)
Title : Ukrainian full
Language : Ukrainian
Encoded date : UTC 2017-09-06 13:41:39
Tagged date : UTC 2017-09-06 13:41:40

Menu #1
00:00:00.000 : Chapter 01
00:05:16.024 : Chapter 02
00:12:16.736 : Chapter 03
00:17:36.722 : Chapter 04
00:23:33.995 : Chapter 05
00:29:34.271 : Chapter 06
00:36:26.599 : Chapter 07
00:44:18.696 : Chapter 08
00:48:23.357 : Chapter 09
00:53:29.913 : Chapter 10
01:00:02.388 : Chapter 11
01:06:43.789 : Chapter 12
01:12:27.048 : Chapter 13
01:18:00.256 : Chapter 14
01:24:03.369 : Chapter 15
01:33:50.789 : Chapter 16

Menu #2
ID : 7
Codec ID : text
Duration : 1h 40mn
Language : English
Encoded date : UTC 2017-09-06 13:41:46
Tagged date : UTC 2017-09-06 13:41:46
Bit rate mode : CBR
00:00:00.000 : Chapter 01
00:05:16.024 : Chapter 02
00:12:16.736 : Chapter 03
00:17:36.722 : Chapter 04
00:23:33.995 : Chapter 05
00:29:34.271 : Chapter 06
00:36:26.599 : Chapter 07
00:44:18.696 : Chapter 08
00:48:23.357 : Chapter 09
00:53:29.913 : Chapter 10
01:00:02.388 : Chapter 11
01:06:43.789 : Chapter 12
01:12:27.048 : Chapter 13
01:18:00.256 : Chapter 14
01:24:03.369 : Chapter 15
01:33:50.789 : Chapter 16
x264 [info]: frame I:1078  Avg QP:10.18  size: 71744
x264 [info]: frame P:36436 Avg QP:12.77  size: 23753
x264 [info]: frame B:106347 Avg QP:14.89  size:  6636
x264 [info]: consecutive B-frames:  1.5%  3.3%  5.5% 70.1%  8.6%  9.5%  1.4%
x264 [info]: mb I  I16..4:  8.7% 69.6% 21.7%
x264 [info]: mb P  I16..4:  1.0%  7.3%  1.9%  P16..4: 31.1% 31.3% 21.9%  0.0%  0.0%    skip: 5.5%
x264 [info]: mb B  I16..4:  0.1%  0.7%  0.2%  B16..8: 32.9% 14.6%  4.3%  direct: 6.5%  skip:40.5%  L0:43.0% L1:43.5% BI:13.5%
x264 [info]: 8x8 transform intra:70.8% inter:62.9%
x264 [info]: coded y,uvDC,uvAC intra: 89.0% 87.6% 73.0% inter: 29.9% 20.9% 4.6%
x264 [info]: i16 v,h,dc,p: 32% 13% 10% 44%
x264 [info]: i8 v,h,dc,ddl,ddr,vr,hd,vl,hu: 13% 10%  9%  8% 11% 12% 11% 12% 13%
x264 [info]: i4 v,h,dc,ddl,ddr,vr,hd,vl,hu: 11%  9%  4%  9% 14% 15% 13% 12% 12%
x264 [info]: i8c dc,h,v,p: 47% 22% 18% 12%
x264 [info]: Weighted P-Frames: Y:2.2% UV:0.8%
x264 [info]: ref P L0: 51.6%  6.5% 17.2%  7.2%  5.5%  4.2%  3.6%  2.2%  2.1%  0.1%  0.0%
x264 [info]: ref B L0: 73.7% 11.8%  6.0%  2.9%  2.2%  1.8%  1.2%  0.4%
x264 [info]: ref B L1: 95.0%  5.0%
x264 [info]: kb/s:2197.93
Релиз подготовлен для просмотра на Apple TV, iPad, iPhone, iPod Touch.
Для просмотра данного релиза на компьютере с ОС Windows рекомендуется использовать VLC media player

Трекер:  [ 06-Сен-2017 17:12 ]

  

Скачать .torrent

Размер .torrent файла 34 KB


Размер: 1.72 GB
Хэш (hash) релиза: c9ea3a7619c5f5a053cfef6d2142a87c1574203c

Еще никто не оставлял запись к записи скачать торрент [iPad] Пробуждение Зодиака Awakening the Zodiac . Будь первым!

!Обратная связь