Скачать через торрент [iPad] Жених на двоих Jour J бесплатно русская версия torrent активатор

Если у вас наблюдаются проблемы со скриншотами, переходом по ссылками, скачиванием торрентов - проблемы в блокировщике рекламы AdBlock. #хорошегоДня!


Статистика раздачи
Размер:  1.53 GB   |    Зарегистрирован:  2 месяца 14 дней   |    .torrent скачан:  20 раз   |   
Раздают:  1  
   
Загрузка...
 
Автор Сообщение

Galfimbul

avatar Galfimbul


Жених на двоих / Jour J
«Один мужчина, две женщины, три пути»

6.203 / 10 6.30 / 10
Год выпуска: 2017
Страна: Франция
Жанр: Комедия
Продолжительность: 01:33:57

Перевод: Дублированный (iTunes)
Оригинальная аудиодорожка: Нет
Cубтитры: Нет
Режиссёр: Рем Кериси
Сценарий: Рем Кериси, Стефан Казанджян, Филипп Лашо
Продюсер: Эрик Альтмайер, Николас Альтмайер
Оператор: Пьер Хью Галиен
Композитор: Лоран Акнэн
В ролях: Рем Кериси, Николя Дювошель, Джулия Пьятон, Сильви Тестю, Франсуа-Ксавье Демезон, Шанталь Лоби, Лионель Астье, Ève Saint-Louis, Victoria Monfort, Amelie Fonlupt

Сборы в России: $163 900

Мировая премьера: 30 марта 2017
Премьера (РФ): 10 августа 2017, «ПРОвзгляд»

Описание: В центре сюжета романтической комедии находится влюбленная пара – Алексия и Матиас, уже несколько лет живущие вместе. Однажды Алексия, мечтающая поскорее выйти за Матиаса замуж, находит в кармане своей второй половинку визитку с именем некоей Джульетт и устраивает парню взбучку. Растерявшийся парень выдает Алексии, что Джульетт является организатором свадеб (а на самом деле – любовницей Матиаса). Обрадованная девушка тут же верит небрежной лжи своего возлюбленного, решив, что скоро парень сделает ей предложение руки и сердце. Матиас же теперь вынужден выкручиваться из неловкой ситуации и вместе с Джульетт действительно приступает к организации свадебного мероприятия.Качество исходника: WEB-DL 1080p
Качество: WEB-DLRip
Тип: SD (576p)
Контейнер: M4V
Видео: H.264, 1024x464, 2.2:1, 2 200 Kbps, 23.976 fps

Аудио: Русский/Дублированный (iTunes), AAC / 2.0 / 128 Kbps / 48.0 KHz
Sort Name: Jour J
XID: Apple:vendor_id:2017-1000023
contentID: 1225263604
Copyright: © 2017 Mandarin Production - Gaumont - France 2 Cinéma
Screenwriters: Рем Кериси, Стефан Казанджян, Филипп Лашо
Producers: Эрик Альтмайер, Николас Альтмайер
Director: Рем Кериси
Cast: Рем Кериси, Николя Дювошель, Джулия Пьятон, Сильви Тестю, Франсуа-Ксавье Демезон, Шанталь Лоби, Лионель Астье, Ève Saint-Louis, Victoria Monfort, Amelie Fonlupt, Юлия Рудина, Сергей Дьячков, Светлана Климович, Мария Цветкова-Овсянникова, Регина Щукина
Studio: Gaumont
Rating: 60
Long Description: Что делать, если любовница занимается организацией твоей свадьбы? Молиться, чтобы она не подружилась с невестой. У Матиаса осталось совсем мало времени, чтобы выбрать из двух девушек - одну.
Description: Что делать, если любовница занимается организацией твоей свадьбы? Молиться, чтобы она не подружилась с невестой. У Матиаса осталось совсем мало времени, чтобы выбрать из двух девушек - одну.
Release Date: 2017-03-30T08:00:00Z
Genre: Comédie
Artist: Reem Kherici
Name: Jour J
General
Complete name : /Users/imac/HandBrake/Jour.J.(SD).(pk).m4v
Format : MPEG-4
Codec ID : M4V
File size : 1.53 GiB
Duration : 1h 33mn
Overall bit rate mode : Variable
Overall bit rate : 2 333 Kbps
Movie name : Jour J
Performer : Reem Kherici
Director : Рем Кериси
Actor : Рем Кериси / Николя Дювошель / Джулия Пьятон / Сильви Тестю / Франсуа-Ксавье Демезон / Шанталь Лоби / Лионель Астье / Ève Saint-Louis / Victoria Monfort / Amelie Fonlupt / Юлия Рудина / Сергей Дьячков / Светлана Климович / Мария Цветкова-Овсянникова / Регина Щукина
Screenplay by : Рем Кериси / Стефан Казанджян / Филипп Лашо
Producer : Эрик Альтмайер / Николас Альтмайер
Production studio : Gaumont
Genre : Comédie
ContentType : Short Film
Description : Что делать, если любовница занимается организацией твоей свадьбы? Молиться, чтобы она не подружилась с невестой. У Матиаса осталось совсем мало времени, чтобы выбрать из двух девушек - одну.
Recorded date : UTC 2017-03-30 08:00:00
Encoded date : UTC 2017-09-06 10:06:39
Tagged date : UTC 2017-09-06 10:07:56
Copyright : © 2017 Mandarin Production - Gaumont - France 2 Cinéma
Cover : Yes
Rating : None
Title/Sort : Jour J
LongDescription : Что делать, если любовница занимается организацией твоей свадьбы? Молиться, чтобы она не подружилась с невестой. У Матиаса осталось совсем мало времени, чтобы выбрать из двух девушек - одну.
AppleStoreCatalogID : 1225263604
Vendor : Apple:vendor_id:2017-1000023
ContentRating : fr-movie|Tout public|000|

Video #1
ID : 1
Format : AVC
Format/Info : Advanced Video Codec
Format profile : High@L3.1
Format settings, CABAC : Yes
Format settings, ReFrames : 9 frames
Codec ID : avc1
Codec ID/Info : Advanced Video Coding
Duration : 1h 33mn
Source duration : 1h 33mn
Bit rate : 2 200 Kbps
Width : 1 024 pixels
Height : 464 pixels
Display aspect ratio : 2.2:1
Frame rate mode : Variable
Frame rate : 23.976 fps
Minimum frame rate : 23.974 fps
Maximum frame rate : 23.981 fps
Color space : YUV
Chroma subsampling : 4:2:0
Bit depth : 8 bits
Scan type : Progressive
Bits/(Pixel*Frame) : 0.193
Stream size : 1.44 GiB (94%)
Source stream size : 1.44 GiB (94%)
Title : Main Program
Writing library : x264 core 148 r2708 86b7198
Encoding settings : cabac=1 / ref=9 / deblock=1:0:0 / analyse=0x3:0x113 / me=umh / subme=9 / psy=1 / psy_rd=1.00:0.00 / mixed_ref=1 / me_range=32 / chroma_me=1 / trellis=1 / 8x8dct=1 / cqm=0 / deadzone=21,11 / fast_pskip=1 / chroma_qp_offset=-2 / threads=14 / lookahead_threads=1 / sliced_threads=0 / nr=0 / decimate=1 / interlaced=0 / bluray_compat=0 / constrained_intra=0 / bframes=6 / b_pyramid=2 / b_adapt=2 / b_bias=0 / direct=1 / weightb=1 / open_gop=0 / weightp=2 / keyint=240 / keyint_min=24 / scenecut=40 / intra_refresh=0 / rc_lookahead=40 / rc=2pass / mbtree=1 / bitrate=2200 / ratetol=1.0 / qcomp=0.60 / qpmin=0 / qpmax=69 / qpstep=4 / cplxblur=20.0 / qblur=0.5 / ip_ratio=1.40 / aq=1:1.00
Language : French
Encoded date : UTC 2017-09-06 10:06:40
Tagged date : UTC 2017-09-06 10:06:43
Color range : Limited
Color primaries : BT.709
Transfer characteristics : BT.709
Matrix coefficients : BT.709

Video #2
ID : 4
Format : JPEG
Codec ID : jpeg
Duration : 1h 33mn
Bit rate mode : Variable
Bit rate : 936 bps
Width : 640 pixels
Height : 290 pixels
Display aspect ratio : 2.2:1
Frame rate mode : Variable
Frame rate : 0.003 fps
Minimum frame rate : 0.002 fps
Maximum frame rate : 0.004 fps
Color space : YUV
Chroma subsampling : 4:2:0
Bit depth : 8 bits
Compression mode : Lossy
Bits/(Pixel*Frame) : 1.681
Stream size : 571 KiB (0%)
Title : Chapter Images
Language : French
Encoded date : UTC 2017-09-06 10:06:48
Tagged date : UTC 2017-09-06 10:06:48

Audio
ID : 2
Format : AAC
Format/Info : Advanced Audio Codec
Format profile : LC
Codec ID : 40
Duration : 1h 33mn
Bit rate mode : Variable
Bit rate : 126 Kbps
Maximum bit rate : 190 Kbps
Channel(s) : 2 channels
Channel positions : Front: L R
Sampling rate : 48.0 KHz
Compression mode : Lossy
Stream size : 84.5 MiB (5%)
Title : Russian Stereo
Language : Russian
Encoded date : UTC 2017-09-06 10:06:40
Tagged date : UTC 2017-09-06 10:06:45

Menu #1
00:00:00.000 : Глава 1
00:06:53.250 : Глава 2
00:12:36.791 : Глава 3
00:16:55.666 : Глава 4
00:22:29.582 : Глава 5
00:28:32.998 : Глава 6
00:33:58.581 : Глава 7
00:40:40.372 : Глава 8
00:47:48.997 : Глава 9
00:53:00.038 : Глава 10
01:00:03.829 : Глава 11
01:06:02.745 : Глава 12
01:14:02.286 : Глава 13
01:19:08.036 : Глава 14
01:23:27.994 : Глава 15

Menu #2
ID : 3
Codec ID : text
Duration : 1h 33mn
Language : French
Encoded date : UTC 2017-09-06 10:06:45
Tagged date : UTC 2017-09-06 10:06:45
00:00:00.000 : Глава 1
00:06:53.250 : Глава 2
00:12:36.791 : Глава 3
00:16:55.666 : Глава 4
00:22:29.582 : Глава 5
00:28:32.998 : Глава 6
00:33:58.581 : Глава 7
00:40:40.372 : Глава 8
00:47:48.997 : Глава 9
00:53:00.038 : Глава 10
01:00:03.829 : Глава 11
01:06:02.745 : Глава 12
01:14:02.286 : Глава 13
01:19:08.036 : Глава 14
01:23:27.994 : Глава 15
Bit rate mode : VBR
x264 [info]: frame I:1160  Avg QP:12.79  size: 79005
x264 [info]: frame P:36780 Avg QP:15.82  size: 23655
x264 [info]: frame B:97226 Avg QP:18.78  size:  6049
x264 [info]: consecutive B-frames:  3.2%  4.7%  5.7% 72.0%  6.5%  7.2%  0.7%
x264 [info]: mb I  I16..4:  8.0% 63.6% 28.3%
x264 [info]: mb P  I16..4:  1.2%  8.3%  2.6%  P16..4: 33.7% 28.6% 16.8%  0.0%  0.0%    skip: 8.8%
x264 [info]: mb B  I16..4:  0.1%  0.9%  0.4%  B16..8: 35.6% 11.2%  3.4%  direct: 4.3%  skip:44.2%  L0:38.3% L1:45.5% BI:16.2%
x264 [info]: 8x8 transform intra:67.4% inter:65.9%
x264 [info]: coded y,uvDC,uvAC intra: 87.1% 87.3% 64.7% inter: 25.5% 19.4% 3.2%
x264 [info]: i16 v,h,dc,p: 32% 12%  5% 51%
x264 [info]: i8 v,h,dc,ddl,ddr,vr,hd,vl,hu: 14% 10%  4%  8% 12% 14% 12% 13% 12%
x264 [info]: i4 v,h,dc,ddl,ddr,vr,hd,vl,hu: 12%  8%  3%  9% 15% 16% 13% 12% 12%
x264 [info]: i8c dc,h,v,p: 40% 22% 21% 17%
x264 [info]: Weighted P-Frames: Y:2.0% UV:0.9%
x264 [info]: ref P L0: 55.0% 12.0% 14.4%  5.3%  4.1%  3.0%  2.6%  1.7%  1.7%  0.2%  0.0%
x264 [info]: ref B L0: 83.2%  8.3%  3.6%  1.7%  1.2%  1.0%  0.7%  0.3%
x264 [info]: ref B L1: 96.6%  3.4%
x264 [info]: kb/s:2199.22
Релиз подготовлен для просмотра на Apple TV, iPad, iPhone, iPod Touch.
Для просмотра данного релиза на компьютере с ОС Windows рекомендуется использовать VLC media player

Трекер:  [ 06-Сен-2017 14:12 ]

  

Скачать .torrent

Размер .torrent файла 31 KB


Размер: 1.53 GB
Хэш (hash) релиза: ced65958aad222f45374bdf3a0f8f36a967988ea

Еще никто не оставлял запись к записи скачать торрент [iPad] Жених на двоих Jour J . Будь первым!

!Обратная связь