Скачать через торрент На крыше мира Долгий путь на север Фильм бесплатно в хорошем качестве torrent

Скачивайте на UnionPeer.org фильмы через торрент без регистрации. Новинки кино в хорошем качестве через торрент. На UnionPeer.org можно скачать через торрент фильмы 2014 и 2015 годов. Самые новые фильмы.

Скачать торрент На крыше мира Долгий путь на север бесплатно через .torrent фильм мультфильм сериал

Если у вас наблюдаются проблемы со скриншотами, переходом по ссылками, скачиванием торрентов - проблемы в блокировщике рекламы AdBlock. #хорошегоДня!


Статистика раздачи
Размер:  2.96 GB   |    Зарегистрирован:  2 месяца 17 дней   |    .torrent скачан:  22 раза   |   
Раздают:  1  
   
Загрузка...
 
Автор Сообщение

Galfimbul

avatar Galfimbul


На крыше мира / Долгий путь на север / Long Way North / Tout en haut du monde

Страна: Франция, Дания
Жанр: драма, приключения, семейный
Продолжительность: 01:21:20
Год выпуска: 2015
Перевод: Одноголосый закадровый
Перевод 2: Субтитры
Русские субтитры: есть

Режиссёр: Реми Шайе / Rémi Chayé
Роли озвучивали: Криста Тере; Федор Аткин; Энтони Хиклинг; Томас Саголс; Реми Кайебо; Лоик Удре; Audrey Sablé

Описание: 1892 год, Санкт-Петербург. Известный исследователь Арктической территории Олукин долгое время трудился над разработкой уникального корабля, который в последствии назвал “Давай”. Именно на нем ученый планирует совершить удивительное путешествие на Северный полюс. С момента отплытия Олукина в Арктику, прошло много времени. Юная Саша больше не видела своего дедушку. Ученый не вернулся из экспедиции. По прошествии некоторого времени, когда Саша выросла, вопрос об исчезновении дедушки ее встревожил вновь.

Она решила самостоятельно отправиться на поиски дедушкиного корабля. Но семья главной героини не одобрили ее затею. Тем не менее Саша отправилась в Арктику, не взирая на запрет родителей. Удастся ли ей разгадать тайну исчезновения или же она и сама повторит судьбу ученого?



Дополнительная информация: Субтитры на русском от SiriusSeemon (с корректировками).
Семпл: http://multi-up.com/1167301

Качество: BDRip
Формат: MKV
Видео: MPEG4, 1280 x 536(2.39:1), 23.976 (24000/1001) fps, 4 253 Kbps
Аудио: AC3, 48.0 kHz, 2 ch, 320 kb/s (русский, Eugene Greene)
Аудио 2: MP3, 48.0 kHz, 2 ch, 192 kb/s (русский, PashaUp)
Аудио 3: AC3, 48.0 kHz, 6 ch, 448 kb/s (французский)
Субтитры: русские, французские, английские
GeneralUnique ID : 245921291199396028117968010553174976826 (0xB902B7C63803E683641473B62706E93A)Complete name : На крыше мира.2015.RUS.720p.BluRay.mkvFormat : MatroskaFormat version : Version 4 / Version 2File size : 2.96 GiBDuration : 1 h 21 minOverall bit rate : 5 213 kb/sMovie name : На крыше мираEncoded date : UTC 2017-09-05 18:25:10Writing application : mkvmerge v15.0.0 ('Duel with the Devil') 64-bitWriting library : libebml v1.3.5 + libmatroska v1.4.5

VideoID : 1Format : AVCFormat/Info : Advanced Video CodecFormat profile : High@L4.1Format settings, CABAC : YesFormat settings, ReFrames : 5 framesCodec ID : V_MPEG4/ISO/AVCDuration : 1 h 21 minBit rate : 4 253 kb/sWidth : 1 280 pixelsHeight : 536 pixelsDisplay aspect ratio : 2.40:1Frame rate mode : ConstantFrame rate : 23.976 (24000/1001) FPSColor space : YUVChroma subsampling : 4:2:0Bit depth : 8 bitsScan type : ProgressiveBits/(Pixel*Frame) : 0.259Stream size : 2.41 GiB (82%)Writing library : x264 core 148 r2692 64f4e24Encoding settings : cabac=1 / ref=5 / deblock=1:0:0 / analyse=0x3:0x113 / me=umh / subme=8 / psy=1 / psy_rd=1.00:0.00 / mixed_ref=1 / me_range=16 / chroma_me=1 / trellis=1 / 8x8dct=1 / cqm=0 / deadzone=21,11 / fast_pskip=1 / chroma_qp_offset=-2 / threads=17 / lookahead_threads=2 / sliced_threads=0 / nr=0 / decimate=1 / interlaced=0 / bluray_compat=0 / constrained_intra=0 / bframes=3 / b_pyramid=2 / b_adapt=2 / b_bias=0 / direct=3 / weightb=1 / open_gop=0 / weightp=2 / keyint=240 / keyint_min=24 / scenecut=40 / intra_refresh=0 / rc_lookahead=50 / rc=2pass / mbtree=1 / bitrate=4253 / ratetol=1.0 / qcomp=0.60 / qpmin=0 / qpmax=69 / qpstep=4 / cplxblur=20.0 / qblur=0.5 / ip_ratio=1.40 / aq=1:1.00Language : EnglishDefault : YesForced : No

Audio #1ID : 2Format : AC-3Format/Info : Audio Coding 3Mode extension : CM (complete main)Format settings, Endianness : BigCodec ID : A_AC3Duration : 1 h 21 minBit rate mode : ConstantBit rate : 320 kb/sChannel(s) : 2 channelsChannel positions : Front: L RSampling rate : 48.0 kHzFrame rate : 31.250 FPS (1536 spf)Bit depth : 16 bitsCompression mode : LossyStream size : 186 MiB (6%)Title : Русский (Eugene Greene)Language : RussianDefault : YesForced : No

Audio #2ID : 3Format : MPEG AudioFormat version : Version 1Format profile : Layer 3Mode : Joint stereoCodec ID : A_MPEG/L3Codec ID/Hint : MP3Duration : 1 h 21 minBit rate mode : ConstantBit rate : 192 kb/sChannel(s) : 2 channelsSampling rate : 48.0 kHzFrame rate : 41.667 FPS (1152 spf)Compression mode : LossyStream size : 112 MiB (4%)Title : Русский (PashaUp)Language : RussianDefault : NoForced : No

Audio #3ID : 4Format : AC-3Format/Info : Audio Coding 3Mode extension : CM (complete main)Format settings, Endianness : BigCodec ID : A_AC3Duration : 1 h 21 minBit rate mode : ConstantBit rate : 448 kb/sChannel(s) : 6 channelsChannel positions : Front: L C R, Side: L R, LFESampling rate : 48.0 kHzFrame rate : 31.250 FPS (1536 spf)Bit depth : 16 bitsCompression mode : LossyStream size : 261 MiB (9%)Title : OriginalLanguage : FrenchDefault : NoForced : No

Text #1ID : 5Format : ASSCodec ID : S_TEXT/ASSCodec ID/Info : Advanced Sub Station AlphaDuration : 1 h 15 minBit rate : 93 b/sCount of elements : 657Compression mode : LosslessStream size : 51.1 KiB (0%)Language : RussianDefault : NoForced : No

Text #2ID : 6Format : ASSCodec ID : S_TEXT/ASSCodec ID/Info : Advanced Sub Station AlphaDuration : 1 h 15 minBit rate : 64 b/sCount of elements : 657Compression mode : LosslessStream size : 35.7 KiB (0%)Language : EnglishDefault : NoForced : No

Text #3ID : 7Format : ASSCodec ID : S_TEXT/ASSCodec ID/Info : Advanced Sub Station AlphaDuration : 1 h 15 minBit rate : 66 b/sCount of elements : 647Compression mode : LosslessStream size : 36.6 KiB (0%)Language : FrenchDefault : NoForced : No

Menu00:00:00.000 : en:00:00:00.00000:07:00.337 : en:00:07:00.33700:14:48.096 : en:00:14:48.09600:20:06.330 : en:00:20:06.33000:27:06.416 : en:00:27:06.41600:31:18.376 : en:00:31:18.37600:35:36.509 : en:00:35:36.50900:45:54.794 : en:00:45:54.79400:56:02.484 : en:00:56:02.48401:02:00.675 : en:01:02:00.67501:09:17.695 : en:01:09:17.69501:16:59.073 : en:01:16:59.073


Трекер:  [ 05-Сен-2017 23:36 ]

  

Скачать .torrent

Размер .torrent файла 119 KB


Размер: 2.96 GB
Хэш (hash) релиза: ecfe930efa37c1d67e1f81d4c90b76625ae56667
Подписка на обновления:

Еще никто не оставлял запись к записи скачать торрент На крыше мира Долгий путь на север . Будь первым!

!Обратная связь