Скачать через торрент Измайловский парк 2017.09.02 Фильм бесплатно в хорошем качестве torrent

Скачивайте на UnionPeer.org фильмы через торрент без регистрации. Новинки кино в хорошем качестве через торрент. На UnionPeer.org можно скачать через торрент фильмы 2014 и 2015 годов. Самые новые фильмы.

Скачать торрент Измайловский парк 2017.09.02 бесплатно через .torrent фильм мультфильм сериал

Если у вас наблюдаются проблемы со скриншотами, переходом по ссылками, скачиванием торрентов - проблемы в блокировщике рекламы AdBlock. #хорошегоДня!


Статистика раздачи
Размер:  7.92 GB   |    Зарегистрирован:  16 дней   |    .torrent скачан:  4 раза   |   
Раздают:  1  
   
Загрузка...
 
Автор Сообщение

Galfimbul

avatar Galfimbul


Измайловский парк 2017.09.02

Дата/Год выпуска: 2017
Страна: Россия
Жанр: Юмористическая передача
Продолжительность: 01:51:00
Перевод: Не требуется
Оригинальная аудиодорожка: русский
Телеканал: Россия 1 HD
Описание: В "Измайловском парке" собираются те, кому есть чем развеселить публику, и те, кому просто хочется посмеяться. Гости Лиона Измайлова: Владимир Моисеенко, , Сергей Дроботенко, Юрий Гальцев, Святослав Ещенко и другие

качество: HDTV 1080i
формат: TS
Видео: H264; 1920x1080 (16:9); 25.000 fps; ~9 476 kb/s
Аудио: MPEG Audio Version 1 Layer 2, 48000Hz, 2 channels stereo 192 Кбит/сек
GeneralID : 1 (0x1)Complete name : C:\Измайловский парк 2017.09.02.tsFormat : MPEG-TSFile size : 7.92 GiBDuration : 1 h 51 minOverall bit rate mode : VariableOverall bit rate : 10.2 Mb/s

VideoID : 2292 (0x8F4)Menu ID : 2291 (0x8F3)Format : AVCFormat/Info : Advanced Video CodecFormat profile : High@L4Format settings, CABAC : YesFormat settings, ReFrames : 4 framesFormat settings, GOP : M=4, N=32Codec ID : 27Duration : 1 h 51 minBit rate : 9 476 kb/sWidth : 1 920 pixelsHeight : 1 080 pixelsDisplay aspect ratio : 16:9Frame rate : 25.000 FPSStandard : ComponentColor space : YUVChroma subsampling : 4:2:0Bit depth : 8 bitsScan type : InterlacedScan type, store method : Separated fieldsScan order : Top Field FirstBits/(Pixel*Frame) : 0.183Stream size : 7.38 GiB (93%)Color range : LimitedColor primaries : BT.709Transfer characteristics : BT.709Matrix coefficients : BT.709

AudioID : 2295 (0x8F7)Menu ID : 2291 (0x8F3)Format : MPEG AudioFormat version : Version 1Format profile : Layer 2Codec ID : 3Duration : 1 h 51 minBit rate mode : ConstantBit rate : 192 kb/sChannel(s) : 2 channelsSampling rate : 48.0 kHzCompression mode : LossyStream size : 153 MiB (2%)Language : Russian


Трекер:  [ 05-Сен-2017 19:42 ]

  

Скачать .torrent

Размер .torrent файла 40 KB


Размер: 7.92 GB
Хэш (hash) релиза: 7267e54f6d33cdcb0ec016b55037baa94f4469f9
Подписка на обновления:

Еще никто не оставлял запись к записи скачать торрент Измайловский парк 2017.09.02 . Будь первым!

!Обратная связь