Скачать через торрент Петросян-шоу. Выпуск 17 от 2017.09.01 Фильм бесплатно в хорошем качестве torrent

Скачивайте на UnionPeer.org фильмы через торрент без регистрации. Новинки кино в хорошем качестве через торрент. На UnionPeer.org можно скачать через торрент фильмы 2014 и 2015 годов. Самые новые фильмы.

Скачать торрент Петросян-шоу. Выпуск 17 от 2017.09.01 бесплатно через .torrent фильм мультфильм сериал

Если у вас наблюдаются проблемы со скриншотами, переходом по ссылками, скачиванием торрентов - проблемы в блокировщике рекламы AdBlock. #хорошегоДня!


Статистика раздачи
Размер:  9.92 GB   |    Зарегистрирован:  16 дней   |    .torrent скачан:  10 раз   |   
Раздают:  1  
   
Загрузка...
 
Автор Сообщение

Galfimbul

avatar Galfimbul


Петросян-шоу. Выпуск 17 от 2017.09.01

Дата/Год выпуска: 2017
Страна: Россия
Жанр: юмор
Продолжительность: 01:35:00
Перевод: Не требуется
Оригинальная аудиодорожка: русский
Телеканал: Россия 1 HD
Описание: На телеканале "Россия" - новое яркое юмористическое "Петросян-шоу"!
Мэтр эстрады выступит в роли не только артиста, но и ведущего программы. На сцене - любимые артисты и новые исполнители.
Как говорит сам Петросян, "эта передача, которую делают десятки людей, прежде всего, для хорошего настроения зрителей. Есть, конечно, и потаенная идея – попытка "толкнуть" жанр на новый виток развития, взбудоражить творческую фантазию, дать дорогу молодежи, если она откликнется, узнав о нашем шоу".

Номера передачи:
1.Е.Петросян - Стихи В.Соловьёва
2.Артисты "Петросян-шоу" - Семейный психолог
3.Е.Петросян - Ситуашки-наблюдашки
4.Д.Кузиняткин - Бит-бокс
5.Д.Кузиняткин - Пародия на телемагазин
6.Д.Руднева и С.Ещенко - Народные перепевки
7.Е.Петросян и А.Буховцов - Юморомер
8.М.Смирнов и А.Буховцов - От зари до зари
9.М.Смирнов - Бдыщ
10.С.Кобликов - Абсолютно нетрезвый
11.Л.Крымова и Н.Бандурин - Женская сумочка
12.А.Егоров - Твари
13.В.Коркина и В.Остроухов - Танечка
14.А.Щеглов - Дети и гаджеты
15.Музыкальные пародии

качество: HDTV 1080i
формат: TS
Видео кодек: H.264
Аудио кодек: MP2
Видео: H264; 1920x1080 (16:9); 25.000 fps; ~11.4 Mb/s
Аудио: MPEG Audio 48000Hz stereo 192 Кбит/сек
GeneralID : 1 (0x1)Complete name : I:\Смеяться разрешается 2014.05.01 - 2014.05.18\Петросян-шоу. Выпуск 17 от 2017.09.01.tsFormat : MPEG-TSFile size : 9.92 GiBDuration : 1 h 56 minOverall bit rate mode : VariableOverall bit rate : 12.2 Mb/s

VideoID : 2292 (0x8F4)Menu ID : 2291 (0x8F3)Format : AVCFormat/Info : Advanced Video CodecFormat profile : High@L4Format settings, CABAC : YesFormat settings, ReFrames : 4 framesFormat settings, GOP : M=4, N=32Codec ID : 27Duration : 1 h 56 minBit rate : 11.4 Mb/sWidth : 1 920 pixelsHeight : 1 080 pixelsDisplay aspect ratio : 16:9Frame rate : 25.000 FPSStandard : ComponentColor space : YUVChroma subsampling : 4:2:0Bit depth : 8 bitsScan type : InterlacedScan type, store method : Separated fieldsScan order : Top Field FirstBits/(Pixel*Frame) : 0.219Stream size : 9.28 GiB (93%)Color range : LimitedColor primaries : BT.709Transfer characteristics : BT.709Matrix coefficients : BT.709

AudioID : 2295 (0x8F7)Menu ID : 2291 (0x8F3)Format : MPEG AudioFormat version : Version 1Format profile : Layer 2Codec ID : 3Duration : 1 h 56 minBit rate mode : ConstantBit rate : 192 kb/sChannel(s) : 2 channelsSampling rate : 48.0 kHzCompression mode : LossyStream size : 160 MiB (2%)Language : Russian


Трекер:  [ 05-Сен-2017 19:12 ]

  

Скачать .torrent

Размер .torrent файла 50 KB


Размер: 9.92 GB
Хэш (hash) релиза: 2dd8dc86218bd05ef4ac13e6733b17a740f9969f
Подписка на обновления:

Еще никто не оставлял запись к записи скачать торрент Петросян-шоу. Выпуск 17 от 2017.09.01 . Будь первым!

!Обратная связь