Скачать порно через торрент Youjuu Toshi Wicked City UnionPeer.org бесплатно онлайн HD качество

Скачать новое порно 2015, 2014 новинки через торрент UnionPeer.org

Порно торрент бесплатно ЮнионПир.орг

Если у вас наблюдаются проблемы со скриншотами, переходом по ссылками, скачиванием торрентов - проблемы в блокировщике рекламы AdBlock. #хорошегоДня!


Статистика раздачи
Размер:  4.13 GB   |    Зарегистрирован:  2 месяца 15 дней   |    .torrent скачан:  384 раза   |   
Раздают:  6  
   
Загрузка...
 
Автор Сообщение

Galfimbul

avatar Galfimbul


Youjuu Toshi
妖獣都市
Wicked City
Город чудищ

Год выпуска: 1987
Жанр: fantasy, mystic, demons
Серии: ep. 1 of 1
Продолжительность: 1h 22mn
Цензура: Этти - легкая эротика

Озвучка: Японская оригинальная
Озвучка: Русская любительская (одноголосая)
Субтитры: Русские встроенные отключаемые IDX+SUB
Субтитры: Английские встроенные отключаемые IDX+SUB

Режиссер: Kawajiri Yoshiaki
Автор оригинала: Kikuchi Hideyuki
Студия: Japan Home Video, Madhouse

Описание: Мало кому известно, что параллельно знакомому нам миру существует альтернативный Чёрный Мир, который населён демонами, способными изменять свой внешний облик и обладающими мощными магическими силами. Столкновение обитателей двух миров чревато нежелательными последствиями, а потому раз в пятьсот лет между ними подписывается мирное соглашение, предотвращающее проникновение демонов в наш мир. На страже соблюдения перемирия стоят тайные элитные подразделения, называемые Чёрными Стражами, в состав которых входят представители обеих сторон. Срок действия существующего договора уже подходит к концу, и для подписания нового в наш мир прибывает Джузеппе, особый духовный медиум, без чьего присутствия заключение соглашения невозможно. Однако в Чёрном Мире зреет заговор некой зловещей секты, ставящей целью сорвать подписание и повергнуть миры в хаос. Злоумышленники планируют устранить Джузеппе, и для его охраны назначена пара лучших Чёрных Стражей - плейбой Таки с нашей стороны и неотразимая Мэки, женщина-демон. В их руках находится судьба мира. Фильм прославленного режиссёра Ёсиаки Кавадзири, сочетающий стильный эротизм, мрачную атмосферу фильмов-нуар и стремительную динамику боевика.
© Алексей Фадеев, World Art

anidb

Доп. информация: Сузаковский диск.

Качество видео: DVD5
Формат видео: DVD Video
Видео: MPEG 2, 720-480, 4-3, 29.970 fps, 4042 kbps
Аудио 1: jpn, AC-3, Stereo, 48.0 KHz, 224 kbps
Аудио 2: rus, AC-3, Stereo, 48.0 KHz, 224 kbps
General
Unique ID : 85121028856437345504370616130872033800 (0x4009B6BE0853C9CBBDD20DB774284208)
Complete name : title00.mkv
Format : Matroska
Format version : Version 2
File size : 2.63 GiB
Duration : 1 h 22 min
Overall bit rate mode : Variable
Overall bit rate : 4 581 kb/s
Encoded date : UTC 2017-09-05 11:33:53
Writing application : MakeMKV v1.6.10 win(x64-release)
Writing library : libmakemkv v1.6.10 (1.2.0/1.1.0) win(x64-release)

Video
ID : 1
Format : MPEG Video
Format version : Version 2
Format profile : Main@Main
Format settings, BVOP : Yes
Format settings, Matrix : Custom
Format settings, GOP : M=3, N=12
Codec ID : V_MPEG2
Codec ID/Info : MPEG 1 or 2 Video
Bit rate mode : Variable
Bit rate : 4 042 kb/s
Maximum bit rate : 9 800 kb/s
Width : 720 pixels
Height : 480 pixels
Display aspect ratio : 4:3
Frame rate mode : Variable
Original frame rate : 29.970 FPS
Color space : YUV
Chroma subsampling : 4:2:0
Bit depth : 8 bits
Compression mode : Lossy
Language : English
Default : Yes
Forced : No

Audio #1
ID : 2
Format : AC-3
Format/Info : Audio Coding 3
Format settings, Endianness : Big
Codec ID : A_AC3
Duration : 1 h 22 min
Bit rate mode : Constant
Bit rate : 224 kb/s
Channel(s) : 2 channels
Channel positions : Front: L R
Sampling rate : 48.0 kHz
Frame rate : 31.250 FPS (1536 spf)
Bit depth : 16 bits
Compression mode : Lossy
Stream size : 132 MiB (5%)
Title : 2/0
Language : Japanese
Service kind : Complete Main
Default : Yes
Forced : No

Audio #2
ID : 3
Format : AC-3
Format/Info : Audio Coding 3
Format settings, Endianness : Big
Codec ID : A_AC3
Duration : 1 h 22 min
Bit rate mode : Constant
Bit rate : 224 kb/s
Channel(s) : 2 channels
Channel positions : Front: L R
Sampling rate : 48.0 kHz
Frame rate : 31.250 FPS (1536 spf)
Bit depth : 16 bits
Compression mode : Lossy
Stream size : 132 MiB (5%)
Title : 2/0
Language : Russian
Service kind : Complete Main
Default : No
Forced : No

Text #1
ID : 4
Format : VobSub
Codec ID : S_VOBSUB
Codec ID/Info : Picture based subtitle format used on DVDs
Language : Russian
Default : Yes
Forced : No

Text #2
ID : 5
Format : VobSub
Codec ID : S_VOBSUB
Codec ID/Info : Picture based subtitle format used on DVDs
Language : English
Default : No
Forced : No

Menu
00:00:00.000 : en:Chapter 01
00:06:33.526 : en:Chapter 02
00:16:22.314 : en:Chapter 03
00:26:35.260 : en:Chapter 04
00:35:19.517 : en:Chapter 05
00:45:22.186 : en:Chapter 06
00:54:56.092 : en:Chapter 07
01:03:52.628 : en:Chapter 08
01:10:07.903 : en:Chapter 09
01:19:05.540 : en:Chapter 10


Трекер:  [ 05-Сен-2017 15:00 ]

  

Скачать .torrent

Размер .torrent файла 22 KB


Размер: 4.13 GB
Хэш (hash) релиза: 59b7419bbc10f896b67434745fe87178b8272b8b

Еще никто не оставлял запись к записи скачать торрент Youjuu Toshi Wicked City . Будь первым!

!Обратная связь