Скачать через торрент Морские дьяволы Сезон: 1 Серии: 12 из 12 Фильм бесплатно в хорошем качестве torrent

Скачивайте на UnionPeer.org фильмы через торрент без регистрации. Новинки кино в хорошем качестве через торрент. На UnionPeer.org можно скачать через торрент фильмы 2014 и 2015 годов. Самые новые фильмы.

Скачать торрент Морские дьяволы Сезон: 1 Серии: 12 из 12 бесплатно через .torrent фильм мультфильм сериал

Если у вас наблюдаются проблемы со скриншотами, переходом по ссылками, скачиванием торрентов - проблемы в блокировщике рекламы AdBlock. #хорошегоДня!


Статистика раздачи
Размер:  15.38 GB   |    Зарегистрирован:  2 месяца 17 дней   |    .torrent скачан:  5 раз   |   
Раздают:  1  
   
Загрузка...
 
Автор Сообщение

Galfimbul

avatar Galfimbul


Морские дьяволы

Год выпуска: 2005
Производство: НТВ
Жанр: Боевик
Продолжительность: 600 мин.
Субтитры: Украинские

Режиссёр: Кирилл Капица, Владимир Праздников

В ролях: Олег Чернов, Тара Амирханова, Виктор Смирнов, Игорь Григорьев, Александр Степин, Алексей Макрецкий, Юрий Пусев, Сергей Ионкин, Павел Янутш, Ангелина Боровикова, Иван Паршин, Карина Разумовская, Ян Цапник, Фархад Махмудов, Андрей Носков, Максим Фомин, Юрий Ицков, Сергей Великанов, Александр Карпиловский, Виктор Бабич, Яна Кушаковская, Евгений Гусев, Александр Строев, Дарья Юргенс (Лесникова), Роман Агеев, Василий Шевцов, Антон Багмет, Евгений Иванов, Сергей Гамов, Михаил Богданов, Алексей Байдаков, Сергей Лысов, Юлия Горшенина, Роман Грибков, Наталья Ткаченко, Александр Солдатов, Игорь Григорьев

Описание: Это фильм об элите спецназа - боевых пловцах ВМФ России. О том как, проводятся секретные спецоперации на море и на территориях иностранных государств. У каждого задания имеется своя политическая подоплека. Мы увидим, как воплощаются в жизнь государственные интересы России. В действие вовлечены все - от самых вершин власти - на уровне Генерального штаба и дипломатических миссий - до рядового матроса срочной службы. В центре повествования четверка «мушкетеров» - отряд особого назначения «Морские дьяволы». У каждого из них есть оперативный псевдоним, который как прозвище крепко «прилип» к нему. Они появляются из-под воды там, где их никто не ждет. Они выживают в самых неблагоприятных условиях. Под водой им противодействуют водолазы противника, а также дрессированные дельфины-убийцы. Против пловцов ставят специальные заграждения. И это только краткий перечень того, с чем сталкиваются «Морские дьяволы» по роду службы.

Все раздачи сериала:
Сэмпл-Диск 1: http://multi-up.com/565145
Сэмпл-Диск 2: http://multi-up.com/565144

Качество: 2хDVD9
Формат: DVD-Video
Видео кодек: MPEG2
Аудио кодек: AC3
Видео: PAL 4:3 (720x576) 25.000 fps VBR ~3 713 Kbps
Аудио: Russian (Dolby AC3, 2 ch) 224 Kbps
General
Complete name : D:\Морские дьяволы\Диск 1\VIDEO_TS\VTS_01_1.VOB
Format : MPEG-PS
File size : 1 024 MiB
Duration : 35mn 38s
Overall bit rate : 4 016 Kbps

Video
ID : 224 (0xE0)
Format : MPEG Video
Format version : Version 2
Format profile : Main@Main
Format settings, BVOP : Yes
Format settings, Matrix : Default
Duration : 35mn 38s
Bit rate mode : Variable
Bit rate : 3 713 Kbps
Nominal bit rate : 6 000 Kbps
Width : 720 pixels
Height : 576 pixels
Display aspect ratio : 4:3
Frame rate : 25.000 fps
Standard : PAL
Color space : YUV
Chroma subsampling : 4:2:0
Bit depth : 8 bits
Scan type : Interlaced
Scan order : Top Field First
Compression mode : Lossy
Bits/(Pixel*Frame) : 0.358
Stream size : 946 MiB (92%)

Audio
ID : 189 (0xBD)-128 (0x80)
Format : AC-3
Format/Info : Audio Coding 3
Mode extension : CM (complete main)
Muxing mode : DVD-Video
Duration : 35mn 38s
Bit rate mode : Constant
Bit rate : 224 Kbps
Channel(s) : 2 channels
Channel positions : Front: L R
Sampling rate : 48.0 KHz
Bit depth : 16 bits
Compression mode : Lossy
Stream size : 57.1 MiB (6%)

Text
ID : 189 (0xBD)-32 (0x20)
Format : RLE
Format/Info : Run-length encoding
Muxing mode : DVD-Video
Delay relative to video : 1s 800ms

Menu
General
Complete name : D:\Морские дьяволы\Диск 2\VIDEO_TS\VTS_01_1.VOB
Format : MPEG-PS
File size : 1 024 MiB
Duration : 35mn 38s
Overall bit rate : 4 017 Kbps

Video
ID : 224 (0xE0)
Format : MPEG Video
Format version : Version 2
Format profile : Main@Main
Format settings, BVOP : Yes
Format settings, Matrix : Default
Duration : 35mn 38s
Bit rate mode : Variable
Bit rate : 3 713 Kbps
Nominal bit rate : 6 000 Kbps
Width : 720 pixels
Height : 576 pixels
Display aspect ratio : 4:3
Frame rate : 25.000 fps
Standard : PAL
Color space : YUV
Chroma subsampling : 4:2:0
Bit depth : 8 bits
Scan type : Interlaced
Scan order : Top Field First
Compression mode : Lossy
Bits/(Pixel*Frame) : 0.358
Stream size : 946 MiB (92%)

Audio
ID : 189 (0xBD)-128 (0x80)
Format : AC-3
Format/Info : Audio Coding 3
Mode extension : CM (complete main)
Muxing mode : DVD-Video
Duration : 35mn 38s
Bit rate mode : Constant
Bit rate : 224 Kbps
Channel(s) : 2 channels
Channel positions : Front: L R
Sampling rate : 48.0 KHz
Bit depth : 16 bits
Compression mode : Lossy
Stream size : 57.1 MiB (6%)

Menu
Title:
Size: 7.75 Gb ( 8 122 786 KBytes ) - DVD-9
Enabled regions: 1, 2, 3, 4, 5, 6, 7, 8

VTS_01 :
Play Length: 04:33:03
Video: PAL 4:3 (720x576) VBR
Audio:
Russian (Dolby AC3, 2 ch)
Subtitles:
Ukrainian
Title:
Size: 7.63 Gb ( 8 000 694 KBytes ) - DVD-9
Enabled regions: 1, 2, 3, 4, 5, 6, 7, 8

VTS_01 :
Play Length: 04:28:50
Video: PAL 4:3 (720x576) VBR
Audio:
Russian (Dolby AC3, 2 ch)
Subtitles:
Ukrainian


Трекер:  [ 05-Сен-2017 13:18 ]

  

Скачать .torrent

Размер .torrent файла 79 KB


Размер: 15.38 GB
Хэш (hash) релиза: b5698147a195e729c40a057cac8f68ebdcbcbe60
Подписка на обновления:

Торренты, похожие на Морские дьяволы Сезон: 1 Серии: 12 из 12 скачать торрент

Форум Название Автор Размер S L Добавлен
Российские сериалы ·· Морские дьяволы 1 / Сезон: 1 Серии: 1-12 из 12 (Кирилл Капица, Владимир Праздников) [2005, Россия, Боевик, драма, криминал, DVD9] R5 "Русское счастье Энтертеймент" Galfimbul 82581463167.69 GB 0 0 1504607246

13:27

5-Сен-17

Еще никто не оставлял запись к записи скачать торрент Морские дьяволы Сезон: 1 Серии: 12 из 12 . Будь первым!

!Обратная связь