Скачать через торрент Морские дьяволы. Смерч Серии: 1-32 из 32 Фильм бесплатно в хорошем качестве torrent

Скачивайте на UnionPeer.org фильмы через торрент без регистрации. Новинки кино в хорошем качестве через торрент. На UnionPeer.org можно скачать через торрент фильмы 2014 и 2015 годов. Самые новые фильмы.

Скачать торрент Морские дьяволы. Смерч Серии: 1-32 из 32 бесплатно через .torrent фильм мультфильм сериал

Если у вас наблюдаются проблемы со скриншотами, переходом по ссылками, скачиванием торрентов - проблемы в блокировщике рекламы AdBlock. #хорошегоДня!


Статистика раздачи
Размер:  54.31 GB   |    Зарегистрирован:  2 месяца 17 дней   |    .torrent скачан:  7 раз   |   
Раздают:  1  
   
Загрузка...
 
Автор Сообщение

Galfimbul

avatar Galfimbul


Морские дьяволы. Смерч

Год выпуска: 2012
Производство: "Гамма-продакшн"
Жанр: приключения
Продолжительность: 00:45:00
Субтитры: Нет

Режиссёр: Алексей Гусев, Сергей Васильев, Станислав Дремов

В ролях: Олег Чернов, Дарья Юргенс, Антон Гуляев, Владимир Ярош, Дарья Циберкина, Игорь Григорьев, Михаил Елисеев, Анна Пескова, Антон Пулит, Анатолий Журавлёв, Юрий Кузнецов, Константин Воробьёв, Виталий Кравченко, Руслан Лукьянов, Артур Федынко, Дмитрий Быковский-Ромашов, Михаил Сидаш, Сергей Шкарбан, Алексей Ревякин, Юрий Батурин, Дмитрий Лебедев, Оксана Скакун, Алексей Величко, Руслан Кацагаджиев, Олег Панин, Дмитрий Кочкин, Арсений Бойко, Алексей Симонов, Сергей Маркеев, Олег Малышев, Павел Миронов, Олег Морозов, Константин Клюквин, Юрий Елагин, Александр Петров

Описание: Для возвращения ценностей и денег, казалось бы безвозвратно утерянных страной, создается мобильная группа «Смерч». Среди их предполагаемых дел – поиски Янтарной комнаты, золота Романовых, золота партии и пр. Решая эти задачи, «Смерч» одновременно отсекает и вывоз из страны или попадание в руки нечистых на руку коллекционеров национальных ценностей, незафиксированных в госперечне, но успешно найденных группами самодеятельных искателей. Тем самым, решая дела государственной важности, «Смерч» работает и на поднятие престижа страны. «Объекты» работы группы, что называется, три стихии – вода, небо и земля (включая горы).
Эта группа не сильно скована законами, главное – моральные принципы при подчинению высшему командованию. «Смерч», обладающей всеми новинками вооружений и спецтехники, включает в себя бойцов спецподразделений, ученых, программистов, психологов. Все сотрудники МВД, ФСБ и Министерства Обороны обязаны подчиняться указаниям этой группы.

Релиз: [url=tracker.php?f=9&nm=Морские дьяволы]Все раздачи сериала[/url] / [url=http:// СПАМ

Качество: DVB (ABS 1 at 75.0°E)
Формат: MPEG-PS
Видео кодек: MPEG2
Аудио кодек: MP2
Видео: MPEG 2, 720x576 (4:3), 25.000 fps, 5140 Kbps (0.496 bit/pixel)
Аудио: MP2, 48.0 KHz, 2 ch, 192 Kbps, CBR
ОбщееПолное имя : L:\Раздачи\Морские дьяволы. Смерч\Морские дьяволы. Смерч.01.mpgФормат : MPEG-PSРазмер файла : 1,73 ГбайтПродолжительность : 45 м.Режим общего битрейта : ПеременныйОбщий поток : 5442 Кбит/секБиблиотека кодирования : (c) 1998-2012 Womble Multimedia, Inc. / MPEG Video Wizard DVD 5.0.1.100 (03/2011) / Sep 7 2012

ВидеоИдентификатор : 224 (0xE0)Формат : MPEG VideoВерсия формата : Version 2Профиль формата : Main@MainПараметр BVOP формата : ДаПараметр матрицы формата : ВыборочнаяПараметр GOP формата : VariableПродолжительность : 45 м.Вид битрейта : ПеременныйБитрейт : 5141 Кбит/секМаксимальный битрейт : 15,0 Мбит/секШирина : 720 пикселейВысота : 576 пикселейСоотношение сторон : 4:3Частота кадров : 25,000 кадров/секСтандарт вещания : PALЦветовое пространство : YUVСубдискретизация насыщенности : 4:2:0Битовая глубина : 8 битТип развёртки : ЧересстрочнаяПорядок развёртки : Верхнее поле первоеМетод сжатия : С потерямиБит/(Пиксели*Кадры) : 0.496Размер потока : 1,64 Гбайт (94%)Выравнивание : (c) 1998-2012 Womble Multimedia, Inc. / MPEG Video Wizard DVD 5.0.1.100 (03/2011) / Sep 7 2012Заголовок : (c) 1998-2012 Womble Multimedia, Inc. / MPEG Video Wizard DVD 5.0.1.100 (03/2011) / Sep 7 2012Библиотека кодирования : (c) 1998-2012 Womble Multimedia, Inc. / MPEG Video Wizard DVD 5.0.1.100 (03/2011) / Sep 7 2012

АудиоИдентификатор : 192 (0xC0)Формат : MPEG AudioВерсия формата : Version 1Профиль формата : Layer 2Продолжительность : 45 м.Вид битрейта : ПостоянныйБитрейт : 192 Кбит/секКаналы : 2 каналаЧастота : 48,0 КГцМетод сжатия : С потерямиРазмер потока : 62,6 Мбайт (4%)

Меню
Раздача ведётся путём добавления новых серий; при каждом добавлении создаётся новый торрент. Чтобы начать докачку новой серии, пользователям необходимо сделать следующее:
(1) остановить скачивание,
(2) удалить старый торрент у себя из клиента (старые серии удалять не надо),
(3) скачать новый торрент и запустить его у себя в клиенте вместо старого, при этом указать клиенту путь в старую папку куда и должно происходить скачивание новых серий.
Ваш клиент при этом должен произвести хеширование (проверку) старой папки (если не производит сам - помогите ему сделать это), и будет докачивать только те серии которых у вас ещё нет. Старые серии при этом не удаляются, а продолжают раздаваться!
Eсли вы уже удалили старые серии, то предотвратить повторную закачку старых серий можно, отжав галочку в соответствующих местах при запуске нового торрента. По возможности, желательно не удалять старые серии как можно дольше чтобы релизёр не столько продолжал раздавать старые серии, а смог сконцентрироваться на новых.


Трекер:  [ 05-Сен-2017 13:18 ]

  

Скачать .torrent

Размер .torrent файла 274 KB


Размер: 54.31 GB
Хэш (hash) релиза: ca38c862370654c051d47360f977cf28387932ea
Подписка на обновления:

Торренты, похожие на Морские дьяволы. Смерч Серии: 1-32 из 32 скачать торрент

Форум Название Автор Размер S L Добавлен
Российские сериалы ·· Морские дьяволы. Смерч / Серии: 1-32 из 32 (Алексей Гусев, Сергей Васильев, Станислав Дремов) [2012, приключения, боевик, SATRip - AVC] Galfimbul 1870311562317.42 GB 0 0 1504607190

13:26

5-Сен-17

Российские сериалы ·· Морские дьяволы. Смерч / Серии: 1-32 из 32 (Алексей Гусев, Сергей Васильев, Станислав Дремов) [2012, приключения, SATRip] L 1738664715816.19 GB 0 0 1362053507

15:11

28-Фев-13

Российские сериалы ·· Морские дьяволы. Смерч / Сезон 3 / Серии: 1-32 из 32 (Сергей Винокуров, Евгений Малков, Александра Бутько, Наталия Бучнева, Александр Картохин, Вадим Кауров, Сергей Раевский, Сергей Васильев) [2015, Криминал, приключения HDTVRip] Galfimbul 1846154649617.19 GB 0 0 1504607099

13:24

5-Сен-17

Российские сериалы ·· Морские дьяволы (2 сезон: 1-32 серии из 64) Смерч 2 [2014, Боевик, детектив, криминал, SATRip] Galfimbul 2038980657018.99 GB 0 0 1393249438

16:43

24-Фев-14

Российские сериалы ·· Морские дьяволы. Смерч / Сезон 3 / Серии: 1-2 из 32 (Сергей Винокуров, Евгений Малков, Александра Бутько, Наталия Бучнева, Александр Картохин, Вадим Кауров, Сергей Раевский, Сергей Васильев) [2015, Криминал, приключения HDTVRip] Galfimbul 11540725761.07 GB 0 0 1457998926

02:42

15-Мар-16

Еще никто не оставлял запись к записи скачать торрент Морские дьяволы. Смерч Серии: 1-32 из 32 . Будь первым!

!Обратная связь