Скачать через торрент Морские дьяволы. Смерч. Стихия героев Серии: 1 из 1 Фильм бесплатно в хорошем качестве torrent

Скачивайте на UnionPeer.org фильмы через торрент без регистрации. Новинки кино в хорошем качестве через торрент. На UnionPeer.org можно скачать через торрент фильмы 2014 и 2015 годов. Самые новые фильмы.

Скачать торрент Морские дьяволы. Смерч. Стихия героев Серии: 1 из 1 бесплатно через .torrent фильм мультфильм сериал

Если у вас наблюдаются проблемы со скриншотами, переходом по ссылками, скачиванием торрентов - проблемы в блокировщике рекламы AdBlock. #хорошегоДня!


Статистика раздачи
Размер:  6.15 GB   |    Зарегистрирован:  2 месяца 17 дней   |    .torrent скачан:  5 раз   |   
Раздают:  1  
   
Загрузка...
 
Автор Сообщение

Galfimbul

avatar Galfimbul


Морские дьяволы. Смерч. Стихия героев

Год выпуска: 2014
Производство: ОАО "Телекомпания НТВ"
Жанр: документальный
Продолжительность: 44 мин
Режиссёр: Андрей Куренков

В ролях: Олег Чернов, Дарья Юргенс, Иван Паршин, Антон Гуляев, Владимир Ярош, Дарья Циберкина, Снежана Прудько, Игорь Григорьев, Наталья Земцова, Александра Бутько, Александр Уваров, Константин Бараев, Дмитрий Милош, Александр Картохин, Александр Овчинников

Описание: Вот уже почти десять лет легендарные Морские Дьяволы — сотрудники контртеррористического центра – стоят на страже интересов страны и ведут непримиримую борьбу со злом.
Батя, Багира, Кот, Бизон, Физик, Мура и Пригов охотятся за террористами, участвуют в опаснейших спецоперациях, погонях и боевых схватках, а зрители наблюдают за ними с неиссякаемым интересом. Съемочная группа НТВ решила заглянуть за кулисы популярного сериала и раскрыть некоторые его секреты.
Например, зрители узнают, что география съемок «Морских дьяволов» была поистине впечатляющей – в кадр попали практически все крупные водоемы нашей страны от Геленджика до Санкт-Петербурга.
Поговорив со всеми актерами, создатели фильма выяснили, что «Морские дьяволы» значат для каждого из них, как сплоченный коллектив встречает новичков и чем увлекаются экранные спецназовцы в жизни.
О тонкостях съемок на воде, головокружительных погружениях и зрелищных спецэффектах — в фильме «Морские дьяволы. Смерч. Стихия героев».

Все раздачи сериала:

Качество: WEBRip 720p
Формат: MP4
Видео кодек: H.264
Аудио кодек: AAC
Видео: PAL 16:9 (1280x720) 25fps Битрейт: 20 Мбит/сек
Аудио: AAC 48 кГц 192 Кбит/сек
Общее
Формат : MPEG-4
Профиль формата : Base Media / Version 2
Идентификатор кодека : mp42
Размер файла : 6,15 Гбайт
Продолжительность : 44 м.
Режим общего битрейта : Переменный
Общий поток : 19,9 Мбит/сек
Дата кодирования : UTC 2014-03-22 09:52:49
Дата пометки : UTC 2014-03-22 09:54:09
©TIM : 00:00:00:00
©TSC : 25
©TSZ : 1

Видео
Идентификатор : 1
Формат : AVC
Формат/Информация : Advanced Video Codec
Профиль формата : Main@L4.1
Параметр CABAC формата : Да
Параметр ReFrames формата : 3 кадра
Параметр GOP формата : M=4, N=25
Идентификатор кодека : avc1
Идентификатор кодека/Информация : Advanced Video Coding
Продолжительность : 44 м.
Вид битрейта : Постоянный
Битрейт : 20,0 Мбит/сек
Ширина : 1280 пикселей
Высота : 720 пикселей
Соотношение сторон : 16:9
Режим частоты кадров : Постоянный
Частота кадров : 25,000 кадров/сек
Стандарт вещания : PAL
Цветовое пространство : YUV
Субдискретизация насыщенности : 4:2:0
Битовая глубина : 8 бит
Тип развёртки : Прогрессивная
Бит/(Пиксели*Кадры) : 0.868
Размер потока : 6,09 Гбайт (99%)
Язык : English
Дата кодирования : UTC 2014-03-22 09:52:49
Дата пометки : UTC 2014-03-22 09:52:49

Аудио
Идентификатор : 2
Формат : AAC
Формат/Информация : Advanced Audio Codec
Профиль формата : LC
Идентификатор кодека : 40
Продолжительность : 44 м.
Продолжительность оригинала : 44 м.
Вид битрейта : Переменный
Битрейт : 192 Кбит/сек
Максимальный битрейт : 275 Кбит/сек
Каналы : 2 канала
Расположение каналов : Front: L R
Частота : 48,0 КГц
Метод сжатия : С потерями
Размер потока : 59,8 Мбайт (1%)
Размер потока оригинала : 59,8 Мбайт (1%)
Язык : English
Дата кодирования : UTC 2014-03-22 09:52:49
Дата пометки : UTC 2014-03-22 09:52:49


Трекер:  [ 05-Сен-2017 13:18 ]

  

Скачать .torrent

Размер .torrent файла 16 KB


Размер: 6.15 GB
Хэш (hash) релиза: e6ce5af8ddbde00f2d0785adc2458219747ea25c
Подписка на обновления:

Еще никто не оставлял запись к записи скачать торрент Морские дьяволы. Смерч. Стихия героев Серии: 1 из 1 . Будь первым!

!Обратная связь