Скачать через торрент [ATV3] Жених на двоих Jour J бесплатно русская версия torrent активатор

Если у вас наблюдаются проблемы со скриншотами, переходом по ссылками, скачиванием торрентов - проблемы в блокировщике рекламы AdBlock. #хорошегоДня!


Статистика раздачи
Размер:  3.39 GB   |    Зарегистрирован:  2 месяца 15 дней   |    .torrent скачан:  15 раз   |   
Раздают:  1  
   
Загрузка...
 
Автор Сообщение

Galfimbul

avatar Galfimbul


Жених на двоих / Jour J
«Один мужчина, две женщины, три пути»

6.203 / 10 6.30 / 10
Год выпуска: 2017
Страна: Франция
Жанр: Комедия
Продолжительность: 01:33:57

Перевод: Дублированный (iTunes)
Оригинальная аудиодорожка: Нет
Cубтитры: Нет
Режиссёр: Рем Кериси
Сценарий: Рем Кериси, Стефан Казанджян, Филипп Лашо
Продюсер: Эрик Альтмайер, Николас Альтмайер
Оператор: Пьер Хью Галиен
Композитор: Лоран Акнэн
В ролях: Рем Кериси, Николя Дювошель, Джулия Пьятон, Сильви Тестю, Франсуа-Ксавье Демезон, Шанталь Лоби, Лионель Астье, Ève Saint-Louis, Victoria Monfort, Amelie Fonlupt

Сборы в России: $163 900

Мировая премьера: 30 марта 2017
Премьера (РФ): 10 августа 2017, «ПРОвзгляд»

Описание: В центре сюжета романтической комедии находится влюбленная пара – Алексия и Матиас, уже несколько лет живущие вместе. Однажды Алексия, мечтающая поскорее выйти за Матиаса замуж, находит в кармане своей второй половинку визитку с именем некоей Джульетт и устраивает парню взбучку. Растерявшийся парень выдает Алексии, что Джульетт является организатором свадеб (а на самом деле – любовницей Матиаса). Обрадованная девушка тут же верит небрежной лжи своего возлюбленного, решив, что скоро парень сделает ей предложение руки и сердце. Матиас же теперь вынужден выкручиваться из неловкой ситуации и вместе с Джульетт действительно приступает к организации свадебного мероприятия.Качество исходника: WEB-DL 1080p (BlueBird)
Качество: WEB-DL
Тип: HD (1080p)
Контейнер: M4V
Видео: H.264, 1920x858, 2.25:1, 4 619 Kbps, 24.000 fps

Аудио 1: Русский/Дублированный (iTunes), AAC / 2.0 / 160 Kbps / 48.0 KHz
Аудио 2: Русский/Дублированный (iTunes), AC-3 / 5.1 / 384 Kbps / 48.0 KHz
Sort Name: Jour J
XID: Apple:vendor_id:2017-1000023
contentID: 1225263604
Copyright: © 2017 Mandarin Production - Gaumont - France 2 Cinéma
Screenwriters: Рем Кериси, Стефан Казанджян, Филипп Лашо
Producers: Эрик Альтмайер, Николас Альтмайер
Director: Рем Кериси
Cast: Рем Кериси, Николя Дювошель, Джулия Пьятон, Сильви Тестю, Франсуа-Ксавье Демезон, Шанталь Лоби, Лионель Астье, Ève Saint-Louis, Victoria Monfort, Amelie Fonlupt, Юлия Рудина, Сергей Дьячков, Светлана Климович, Мария Цветкова-Овсянникова, Регина Щукина
Studio: Gaumont
Rating: 60
Long Description: Что делать, если любовница занимается организацией твоей свадьбы? Молиться, чтобы она не подружилась с невестой. У Матиаса осталось совсем мало времени, чтобы выбрать из двух девушек - одну.
Description: Что делать, если любовница занимается организацией твоей свадьбы? Молиться, чтобы она не подружилась с невестой. У Матиаса осталось совсем мало времени, чтобы выбрать из двух девушек - одну.
Release Date: 2017-03-30T08:00:00Z
Genre: Comédie
Artist: Reem Kherici
Name: Jour J
General
Complete name : /Users/imac/HandBrake/Jour.J.WEB-DL.1080p.m4v
Format : MPEG-4
Codec ID : M4V
File size : 3.39 GiB
Duration : 1h 33mn
Overall bit rate mode : Variable
Overall bit rate : 5 168 Kbps
Movie name : Jour J
Performer : Reem Kherici
Director : Рем Кериси
Actor : Рем Кериси / Николя Дювошель / Джулия Пьятон / Сильви Тестю / Франсуа-Ксавье Демезон / Шанталь Лоби / Лионель Астье / Ève Saint-Louis / Victoria Monfort / Amelie Fonlupt / Юлия Рудина / Сергей Дьячков / Светлана Климович / Мария Цветкова-Овсянникова / Регина Щукина
Screenplay by : Рем Кериси / Стефан Казанджян / Филипп Лашо
Producer : Эрик Альтмайер / Николас Альтмайер
Production studio : Gaumont
Genre : Comédie
ContentType : Short Film
Description : Что делать, если любовница занимается организацией твоей свадьбы? Молиться, чтобы она не подружилась с невестой. У Матиаса осталось совсем мало времени, чтобы выбрать из двух девушек - одну.
Recorded date : UTC 2017-03-30 08:00:00
Encoded date : UTC 2017-09-05 09:53:07
Tagged date : UTC 2017-09-05 09:57:35
Copyright : © 2017 Mandarin Production - Gaumont - France 2 Cinéma
Cover : Yes
Rating : None
Title/Sort : Jour J
LongDescription : Что делать, если любовница занимается организацией твоей свадьбы? Молиться, чтобы она не подружилась с невестой. У Матиаса осталось совсем мало времени, чтобы выбрать из двух девушек - одну.
AppleStoreCatalogID : 1225263604
Vendor : Apple:vendor_id:2017-1000023
ContentRating : fr-movie|Tout public|000|

Video #1
ID : 1
Format : AVC
Format/Info : Advanced Video Codec
Format profile : High@L4
Format settings, CABAC : Yes
Format settings, ReFrames : 5 frames
Codec ID : avc1
Codec ID/Info : Advanced Video Coding
Duration : 1h 33mn
Source duration : 1h 33mn
Bit rate : 4 619 Kbps
Width : 1 920 pixels
Height : 858 pixels
Display aspect ratio : 2.25:1
Frame rate mode : Variable
Frame rate : 24.000 fps
Minimum frame rate : 23.810 fps
Maximum frame rate : 24.390 fps
Color space : YUV
Chroma subsampling : 4:2:0
Bit depth : 8 bits
Scan type : Progressive
Bits/(Pixel*Frame) : 0.117
Stream size : 3.03 GiB (89%)
Source stream size : 3.03 GiB (89%)
Title : Main Program
Language : French
Encoded date : UTC 2017-09-05 09:53:07
Tagged date : UTC 2017-09-05 09:54:44
Color range : Limited
Color primaries : BT.709
Transfer characteristics : BT.709
Matrix coefficients : BT.709

Video #2
ID : 5
Format : JPEG
Codec ID : jpeg
Duration : 1h 33mn
Bit rate mode : Variable
Bit rate : 922 bps
Width : 640 pixels
Height : 286 pixels
Display aspect ratio : 2.25:1
Frame rate mode : Variable
Frame rate : 0.003 fps
Minimum frame rate : 0.002 fps
Maximum frame rate : 0.004 fps
Color space : YUV
Chroma subsampling : 4:2:0
Bit depth : 8 bits
Compression mode : Lossy
Bits/(Pixel*Frame) : 1.679
Stream size : 562 KiB (0%)
Title : Chapter Images
Language : French
Encoded date : UTC 2017-09-05 09:54:49
Tagged date : UTC 2017-09-05 09:54:49

Audio #1
ID : 2
Format : AAC
Format/Info : Advanced Audio Codec
Format profile : LC
Codec ID : 40
Duration : 1h 33mn
Bit rate mode : Variable
Bit rate : 157 Kbps
Maximum bit rate : 230 Kbps
Channel(s) : 2 channels
Channel positions : Front: L R
Sampling rate : 48.0 KHz
Compression mode : Lossy
Stream size : 106 MiB (3%)
Title : Russian Stereo
Language : Russian
Encoded date : UTC 2017-09-05 09:53:07
Tagged date : UTC 2017-09-05 09:53:11

Audio #2
ID : 3
Format : AC-3
Format/Info : Audio Coding 3
Mode extension : CM (complete main)
Format settings, Endianness : Big
Codec ID : ac-3
Duration : 1h 33mn
Bit rate mode : Constant
Bit rate : 384 Kbps
Channel(s) : 6 channels
Channel positions : Front: L C R, Side: L R, LFE
Sampling rate : 48.0 KHz
Bit depth : 16 bits
Compression mode : Lossy
Stream size : 258 MiB (7%)
Title : Russian DD 5.1
Language : Russian
Encoded date : UTC 2017-09-05 09:53:07
Tagged date : UTC 2017-09-05 09:54:44

Menu #1
00:00:00.000 : Глава 1
00:06:53.250 : Глава 2
00:12:36.791 : Глава 3
00:16:55.666 : Глава 4
00:22:29.582 : Глава 5
00:28:32.998 : Глава 6
00:33:58.581 : Глава 7
00:40:40.372 : Глава 8
00:47:48.997 : Глава 9
00:53:00.038 : Глава 10
01:00:03.829 : Глава 11
01:06:02.745 : Глава 12
01:14:02.286 : Глава 13
01:19:08.036 : Глава 14
01:23:27.994 : Глава 15

Menu #2
ID : 4
Codec ID : text
Duration : 1h 33mn
Language : French
Encoded date : UTC 2017-09-05 09:54:44
Tagged date : UTC 2017-09-05 09:54:44
00:00:00.000 : Глава 1
00:06:53.250 : Глава 2
00:12:36.791 : Глава 3
00:16:55.666 : Глава 4
00:22:29.582 : Глава 5
00:28:32.998 : Глава 6
00:33:58.581 : Глава 7
00:40:40.372 : Глава 8
00:47:48.997 : Глава 9
00:53:00.038 : Глава 10
01:00:03.829 : Глава 11
01:06:02.745 : Глава 12
01:14:02.286 : Глава 13
01:19:08.036 : Глава 14
01:23:27.994 : Глава 15
Bit rate mode : VBR
Релиз подготовлен для просмотра на Apple TV, iPad, iPhone, iPod Touch.
Для просмотра данного релиза на компьютере с ОС Windows рекомендуется использовать VLC media player

Трекер:  [ 05-Сен-2017 13:12 ]

  

Скачать .torrent

Размер .torrent файла 34 KB


Размер: 3.39 GB
Хэш (hash) релиза: 951c65f615a875818ba67809e19ecf4a618dee0d

Еще никто не оставлял запись к записи скачать торрент [ATV3] Жених на двоих Jour J . Будь первым!

!Обратная связь