Скачать через торрент Каминг Аут Фильм бесплатно в хорошем качестве torrent

Скачивайте на UnionPeer.org фильмы через торрент без регистрации. Новинки кино в хорошем качестве через торрент. На UnionPeer.org можно скачать через торрент фильмы 2014 и 2015 годов. Самые новые фильмы.

Скачать торрент Каминг Аут бесплатно через .torrent фильм мультфильм сериал

Если у вас наблюдаются проблемы со скриншотами, переходом по ссылками, скачиванием торрентов - проблемы в блокировщике рекламы AdBlock. #хорошегоДня!


Статистика раздачи
Размер:  121 MB   |    Зарегистрирован:  2 месяца 15 дней   |    .torrent скачан:  76 раз   |   
Раздают:  1  
   
Загрузка...
 
Автор Сообщение

Galfimbul

avatar Galfimbul


Каминг Аут

Год выхода: 2017
Жанр: короткометражка, сатира
Режиссер: Герман Полозов
В ролях: Дамир Миркамилов, Вячеслав Гардер, Евгений Чистяков

О фильме: Спустя пару недель после оформления ипотеки Андрей узнает, что может потерять свою работу начальника отдела маркетинга из-за нового одиозного законопроекта, который получил поддержку в госдуме.
Страна: Россия
Студия: AG Films
Продолжительность: 00:14:59
Перевод: Не требуется
Субтитры: Нет

Файл
Кодек: XviD
Качество: WEBRip
Видео: 720x304 (2.37:1), 24 fps, XviD build 73 ~993 kbps avg, 0.19 bit/pixel
Звук: 44.100 kHz, MPEG Layer 3, 2 ch, ~128.00 kbps avg
General
Complete name : Kaming.Aut.2017.WEBRip.ot.Portablius.avi
Format : AVI
Format/Info : Audio Video Interleave
File size : 121 MiB
Duration : 14 min 59 s
Overall bit rate : 1 132 kb/s
Writing application : VirtualDubMod 1.5.10.3 | www.virtualdub-fr.org || (build 2550/release)
Writing library : VirtualDubMod build 2550/release

Video
ID : 0
Format : MPEG-4 Visual
Format profile : Advanced Simple@L5
Format settings, BVOP : 1
Format settings, QPel : No
Format settings, GMC : No warppoints
Format settings, Matrix : Custom
Codec ID : XVID
Codec ID/Hint : XviD
Duration : 14 min 59 s
Bit rate : 994 kb/s
Width : 720 pixels
Height : 304 pixels
Display aspect ratio : 2.35:1
Frame rate : 24.000 FPS
Color space : YUV
Chroma subsampling : 4:2:0
Bit depth : 8 bits
Scan type : Progressive
Compression mode : Lossy
Bits/(Pixel*Frame) : 0.189
Stream size : 107 MiB (88%)
Writing library : XviD 73

Audio
ID : 1
Format : MPEG Audio
Format version : Version 1
Format profile : Layer 3
Codec ID : 55
Codec ID/Hint : MP3
Duration : 14 min 59 s
Bit rate mode : Constant
Bit rate : 128 kb/s
Channel(s) : 2 channels
Sampling rate : 44.1 kHz
Compression mode : Lossy
Stream size : 13.7 MiB (11%)
Alignment : Split accross interleaves
Interleave, duration : 42 ms (1.00 video frame)
Interleave, preload duratio : 500 ms
Writing library : LAME3.99r
Encoding settings : -m s -V 4 -q 2 -lowpass 17 -b 128
Источник http://arutor.org

Трекер:  [ 05-Сен-2017 08:20 ]

  

Скачать .torrent

Размер .torrent файла 19 KB


Размер: 121 MB
Хэш (hash) релиза: ae3cb2114e2a0eadfb2985d0cf78525a55b03561
Подписка на обновления:

Еще никто не оставлял запись к записи скачать торрент Каминг Аут . Будь первым!

!Обратная связь