Скачать через торрент Шестое чувство Re-Kan! бесплатно Аниме Все серии на русском torrent

Если у вас наблюдаются проблемы со скриншотами, переходом по ссылками, скачиванием торрентов - проблемы в блокировщике рекламы AdBlock. #хорошегоДня!


Статистика раздачи
Размер:  68.7 GB   |    Зарегистрирован:  2 месяца 19 дней   |    .torrent скачан:  4 раза   |   
Раздают:  1  
   
Загрузка...
 
Автор Сообщение

Galfimbul

avatar Galfimbul


Шестое чувство / Re-Kan!

Год выпуска: 2015
Страна: Япония
Жанр: комедия, мистика, школа
Тип: TV
Продолжительность: 13 эп. по 24 мин.
Озвучка: нет

Русские субтитры: есть (отдельным файлом, формат .ass)
Перевод:

Enzexanadu эп. 1-2
Krasialex эп. 3-13

Хардсаб: НетРежиссер: Кудо Масаси
Студия: Pierrot

Описание: Хибики Амами, темноволосая красавица из старинного рода синтоистских священников, перевелась в новую старшую школу. С такой внешностью и манерами быть бы ей очередной «принцессой», если бы не странные репризы, что регулярно выдает новенькая – то с пустым местом заговорит, то по улице вприсядку пойдет. Хибики даже не таилась перед новыми знакомыми, а сразу честно призналась, что видит духов – происхождение, что ли, влияет?

Ну и что? Школа-то казенная, люди там простые, к своим недостаткам привыкли, и другим многое прощают, был бы человек хороший. Например, местный клоун Ямада сразу влюбился в «принцессу» и готов страдать от ревнивых духов (а что еще остается?) Кана и Кёко привыкли к роли крутых девчонок, им чудачка Хибики по нраву, ибо скучать с ней не приходится. Доброй и наивной Макото вообще все равно – хоть сам Ктулху в школу заявись. Сложней всего пришлось старосте Наруми – слишком правильной девушке, у которой в голове не укладываются духовидческие способности. А что делать, не мы такие – жизнь такая!

© Hollow, World Art

Качество: Blu-Ray Remux
Формат: MKV
Видео кодек: AVC
Аудио кодек: FLAC
Видео: 1920x1080 (16:9) 23,976 fps ~29 Mbps 8bit
Аудио:
Jap FLAC, 48000Hz, ~578 Kbps, 2ch

Чаптеры присутствуют.
01. Я могу видеть их.
02. Они — мои друзья.
03. Восхитительные тамагояки.
04. Лето - значит Пляж.
05. Школьный Фестиваль
06. Супер-Пупер Святая ночь.
07. Новый год весь в делах.
08. Пойдём вместе поиграем.
09. Секрет Дня Святого Валентина.
10. Мы теперь - второгодки.
11. Моё желание.
12. Мы все связаны.
13. Летние воспоминания.
Общее
Уникальный идентификатор : 211824487278861260692169984792634934988 (0x9F5BE98C864379D8B7B27B35700946CC)
Полное имя : Z:\Anime Release - working\Re-Kan\[anti-raws]Re-Kan! ep.01[BDRemux].mkv
Формат : Matroska
Версия формата : Version 4 / Version 2
Размер файла : 5,13 Гбайт
Продолжительность : 24 м. 12 с.
Режим общего битрейта : Переменный
Общий поток : 30,4 Мбит/сек
Дата кодирования : UTC 2017-09-03 19:53:09
Программа кодирования : mkvmerge v15.0.0 ('Duel with the Devil') 64-bit
Библиотека кодирования : libebml v1.3.5 + libmatroska v1.4.5

Видео
Идентификатор : 2
Формат : AVC
Формат/Информация : Advanced Video Codec
Профиль формата : High@L4.1
Параметр CABAC формата : Да
Параметр ReFrames формата : 4 кадра
Идентификатор кодека : V_MPEG4/ISO/AVC
Продолжительность : 24 м. 12 с.
Вид битрейта : Переменный
Битрейт : 29,8 Мбит/сек
Максимальный битрейт : 38,0 Мбит/сек
Ширина : 1920 пикселей
Высота : 1080 пикселей
Соотношение сторон : 16:9
Режим частоты кадров : Постоянный
Частота кадров : 23,976 (24000/1001) кадра/сек
Цветовое пространство : YUV
Субдискретизация насыщенности : 4:2:0
Битовая глубина : 8 бит
Тип развёртки : Прогрессивная
Бит/(Пиксели*Кадры) : 0.599
Размер потока : 5,03 Гбайт (98%)
Default : Нет
Forced : Нет
Цветовой диапазон : Limited
Основные цвета : BT.709
Характеристики трансфера : BT.709
Коэффициенты матрицы : BT.709

Аудио
Идентификатор : 1
Формат : FLAC
Формат/Информация : Free Lossless Audio Codec
Идентификатор кодека : A_FLAC
Продолжительность : 24 м. 12 с.
Вид битрейта : Переменный
Битрейт : 577 Кбит/сек
Каналы : 2 канала
Расположение каналов : Front: L R
Частота : 48,0 КГц
Частота кадров : 11,719 кадров/сек (4096 spf)
Битовая глубина : 16 бит
Размер потока : 99,9 Мбайт (2%)
Библиотека кодирования : libFLAC 1.2.1 (UTC 2007-09-17)
Язык : Japanese
Default : Да
Forced : Нет

Меню
00:00:00.000 : en:00:00:00.000
00:03:17.989 : en:00:03:17.989
00:04:48.038 : en:00:04:48.038
00:12:00.011 : en:00:12:00.011
00:22:10.037 : en:00:22:10.037
00:23:40.044 : en:00:23:40.044
...4982417
...5057610
--WEBRip

Эта раздача - BDRemux


Трекер:  [ 04-Сен-2017 21:30 ]

  

Скачать .torrent

Размер .torrent файла 89 KB


Размер: 68.7 GB
Хэш (hash) релиза: 06242d32ad7878299535bdc242175a21a2103c91
Подписка на обновления:

Торренты, похожие на Шестое чувство Re-Kan! скачать торрент

Форум Название Автор Размер S L Добавлен
Аниме | HD Rips ·· Шестое чувство / Re-Kan! (Кудо Масаси) [TV] [13 из 13] [Без хардсаба] [JAP+SUB] [2015 г., комедия, мистика, школа WEBRip] [1080p] Galfimbul 75462140227.03 GB 0 0 1439166263

03:24

10-Авг-15

Аниме | HD Rips ·· Ре-Кан! / Шестое чувство / Re-Kan! (Кудо Масаси) [TV] [2 из >13] [без хардсаба] [JAP+SUB] [2015 г., комедия, мистика, школа WEBRip] [720p] Galfimbul 691249597659 MB 0 0 1429866954

12:15

24-Апр-15

Аниме | Rips ·· Шестое чувство / Ре-Кан! / Re-Kan! [TV] [03 из 13] [Без хардсаба] [RUS(int), JAP] & [02 из 13] [SUB] [2015 г., Комедия, Мистика, Школа, Сейнен, WEBRip] [720p] Galfimbul 11419521021.06 GB 0 0 1432347497

05:18

23-Май-15

Аниме | Rips ·· Шестое чувство / Ре-Кан! / Re-Kan! [TV] [01 из 13] [Без хардсаба] [RUS(ext), JAP, SUB] [2015 г., Комедия, Мистика, Школа, Сейнен, WEBRip] [720p] Galfimbul 373407656356 MB 0 0 1430161886

22:11

27-Апр-15

Аниме | Rips ·· Шестое чувство / Ре-Кан! / Re-Kan! [TV] [01 из 13] [Без хардсаба] [RUS(int), JAP, SUB] [2015 г., Комедия, Мистика, Школа, Сейнен, HDTVRip] [720p] Galfimbul 322935329308 MB 0 0 1429881450

16:17

24-Апр-15

Еще никто не оставлял запись к записи скачать торрент Шестое чувство Re-Kan! . Будь первым!

!Обратная связь