Скачать через торрент [iPad] Спаси и сохрани Bless the Child бесплатно русская версия torrent активатор

Если у вас наблюдаются проблемы со скриншотами, переходом по ссылками, скачиванием торрентов - проблемы в блокировщике рекламы AdBlock. #хорошегоДня!


Статистика раздачи
Размер:  2.32 GB   |    Зарегистрирован:  16 дней   |    .torrent скачан:  1 раз   |   
Раздают:  1  
   
Загрузка...
 
Автор Сообщение

Galfimbul

avatar Galfimbul


Спаси и сохрани / Bless the Child

Год выпуска: 2001
Страна: США
Жанр: мистический триллер
Продолжительность: 107 минут
Перевод: Профессиональный (многоголосый, закадровый)Режиссер: Чак РасселВ ролях: Ким Бэйсингер /Kim Basinger/, Анн Бетанкур /Anne Betancourt/, Иэн Холм /Ian Holm/, Хелен Стенборг /Helen Stenborg/, Холлистон Коулман /Holliston Coleman/, Джимми Смитс /Jimmy Smits/, Кристина Риччи /Christina Ricci/, Димитра Арлис /Dimitra Arlys/, Анджела Беттис /Angela Bettis/, Луми Кавасос /Lumi Cavazos/, Руфус Сьюэлл /Rufus Sewell/, Юджин Липински /Eugene Lipinski/, Майкл Гэстон /Michael Gaston/Описание: Спокойная и размеренная жизнь Мэгги О`Коннор превращается в сплошной кошмар, когда она узнает, что ее приемная дочь становится объектом преследования секты сатанистов. Мегги, собрав всю свою волю и храбрость, отчаянно защищает свою малышку. Однако, в битве с силами тьмы обычное оружие не может помочь. Только чистая душа маленькой девочки и ее врожденные способности могут остановить надвигающуюся катастрофу.

Качество: DVDRip
Исходник: ...1022736
Формат: m4v
Видео кодек: H.264
Аудио кодек: AAC
Видео: 720x432@1024x432, 2867 Kbps, 23,976 fps
Аудио Rus: 48 kHz, AAC, 2ch, 152 kbps
Аудио Eng: 48 kHz, AAC, 2ch, 178 kbps
Полное имя : E:\iPad\Bless the Child.m4v
Формат : MPEG-4
Идентификатор кодека : M4V
Размер файла : 2,32 Гбайт
Продолжительность : 1 ч. 43 м.
Общий поток : 3208 Кбит/сек
Название фильма : Спаси и сохрани
Исполнитель : Чак Рассел
Жанр : Thriller
Дата записи : UTC 2000-08-11 07:00:00
Дата кодирования : UTC 2012-02-26 04:56:31
Дата пометки : UTC 2012-02-27 05:04:43
Обложка : Yes
desc : Спокойная и размеренная жизнь Мэгги О`Коннор превращается в сплошной кошмар, когда она узнает, что ее приемная дочь становится объектом преследования секты сатанистов. Мегги, собрав всю свою волю и храбрость, отчаянно защищает свою малышку. Однако, в
ldes : Спокойная и размеренная жизнь Мэгги О`Коннор превращается в сплошной кошмар, когда она узнает, что ее приемная дочь становится объектом преследования секты сатанистов. Мегги, собрав всю свою волю и храбрость, отчаянно защищает свою малышку. Однако, в битве с силами тьмы обычное оружие не может помочь. Только чистая душа маленькой девочки и ее врожденные способности могут остановить надвигающуюся катастрофу.
hdvd : 0
stik : 9
cnID : 251810605
xid : iPad:vendor_id:2000-7563
iTunEXTC : mpaa|R|400|
iTunMOVI : / / / / cast / / / name / Ким Бейсингер / / / name / Джимми Смитс / / / name / Холлистон Коулмэн / / / name / Руфус Сьюэлл / / / name / Анджела Беттис / / / name / Кристина Риччи / / / name / Майкл Гэстон / / / name / Луми Кавасос / / / name / Димитра Арлисс / / / name / Юджин Липински. / / / directors / / / name / Чак Рассел / / / producers / / / name / Мейс Нойфелд / / / name / Брюс Дэвей / / / name / Лис Керн / / / screenwriters / / / name / Томас Рикман / / / name / Клиффорд Грин / / / name / Эллен Грин / / / /

Видео
Идентификатор : 1
Формат : AVC
Формат/Информация : Advanced Video Codec
Профиль формата : High@L4.1
Параметр CABAC формата : Да
Параметр ReFrames формата : 11 кадры
Идентификатор кодека : avc1
Идентификатор кодека/Информация : Advanced Video Coding
Продолжительность : 1 ч. 43 м.
Duration_LastFrame : 40 мс.
Вид битрейта : Переменный
Битрейт : 2867 Кбит/сек
Максимальный битрейт : 9958 Кбит/сек
Ширина : 720 пикс.
Высота : 432 пикс.
Соотношение сторон : 2,35:1
Режим частоты кадров : Постоянный
Частота кадров : 25,000 кадр/сек
Цветовое пространство : YUV
Подвыборка цветности : 4:2:0
Битовая глубина : 8 бит
Тип развёртки : Прогрессивная
Бит/(Пиксели*Кадры) : 0.369
Размер потока : 2,07 Гбайт (89%)
Библиотека кодирования : x264 core 112
Настройки программы : cabac=1 / ref=11 / deblock=1:-3:-3 / analyse=0x3:0x113 / me=esa / subme=10 / psy=1 / psy_rd=1.10:0.05 / mixed_ref=1 / me_range=32 / chroma_me=1 / trellis=2 / 8x8dct=1 / cqm=0 / deadzone=21,11 / fast_pskip=1 / chroma_qp_offset=-3 / threads=3 / sliced_threads=0 / nr=0 / decimate=1 / interlaced=0 / constrained_intra=0 / bframes=10 / b_pyramid=2 / b_adapt=1 / b_bias=0 / direct=1 / weightb=1 / open_gop=0 / weightp=2 / keyint=250 / keyint_min=25 / scenecut=40 / intra_refresh=0 / rc_lookahead=40 / rc=2pass / mbtree=1 / bitrate=2867 / ratetol=1.0 / qcomp=0.60 / qpmin=3 / qpmax=51 / qpstep=4 / cplxblur=20.0 / qblur=0.5 / ip_ratio=1.40 / aq=1:0.80
Язык : English
Дата кодирования : UTC 2012-02-26 04:56:31
Дата пометки : UTC 2012-02-26 05:01:05
Основные цвета : BT.601-6 525, BT.1358 525, BT.1700 NTSC, SMPTE 170M
Характеристики трансфера : BT.709-5, BT.1361
Коэффициенты матрицы : BT.601-6 525, BT.1358 525, BT.1700 NTSC, SMPTE 170M

Аудио #1
Идентификатор : 2
Формат : AAC
Формат/Информация : Advanced Audio Codec
Профиль формата : LC
Идентификатор кодека : 40
Продолжительность : 1 ч. 43 м.
Вид битрейта : Переменный
Битрейт : 152 Кбит/сек
Максимальный битрейт : 229 Кбит/сек
Канал(ы) : 2 канала(ов)
Расположение каналов : Front: L R
Частота : 48,0 КГц
Метод сжатия : С потерями
Размер потока : 112 Мбайт (5%)
Заголовок : Russian
Язык : Russian
Дата кодирования : UTC 2012-02-26 04:59:28
Дата пометки : UTC 2012-02-26 05:01:05

Аудио #2
Идентификатор : 3
Формат : AAC
Формат/Информация : Advanced Audio Codec
Профиль формата : LC
Идентификатор кодека : 40
Продолжительность : 1 ч. 43 м.
Вид битрейта : Переменный
Битрейт : 178 Кбит/сек
Максимальный битрейт : 239 Кбит/сек
Канал(ы) : 2 канала(ов)
Расположение каналов : Front: L R
Частота : 48,0 КГц
Метод сжатия : С потерями
Размер потока : 132 Мбайт (6%)
Заголовок : English
Язык : English
Дата кодирования : UTC 2012-02-26 05:00:23
Дата пометки : UTC 2012-02-26 05:01:05

Текст
Идентификатор : 4
Формат : Apple text
Идентификатор кодека : text
Продолжительность : 1 ч. 43 м.
Вид битрейта : Постоянный
Битрейт : 0
Размер потока : 240 байт (0%)
Дата кодирования : UTC 2012-02-27 05:04:42
Дата пометки : UTC 2012-02-27 05:04:43


Трекер:  [ 04-Сен-2017 20:42 ]

  

Скачать .torrent

Размер .torrent файла 12 KB


Размер: 2.32 GB
Хэш (hash) релиза: eb87c727546aabdcfe19b7a76cff1e4232339cb2

Еще никто не оставлял запись к записи скачать торрент [iPad] Спаси и сохрани Bless the Child . Будь первым!

!Обратная связь