Скачать через торрент [ATV3] Пробуждение Зодиака Awakening the Zodiac бесплатно русская версия torrent активатор

Если у вас наблюдаются проблемы со скриншотами, переходом по ссылками, скачиванием торрентов - проблемы в блокировщике рекламы AdBlock. #хорошегоДня!


Статистика раздачи
Размер:  3.95 GB   |    Зарегистрирован:  20 дней   |    .torrent скачан:  0 раз   |   
Раздают:  1  
   
Загрузка...
 
Автор Сообщение

Galfimbul

avatar Galfimbul


Пробуждение Зодиака / Awakening the Zodiac
-

4.735 / 10 / 10
Год выпуска: 2017
Страна: Канада
Жанр: Триллер
Продолжительность: 01:40:00

Перевод: Многоголосый закадровый (iTunes)
Оригинальная аудиодорожка: Есть
Cубтитры: Русские, Английские, Украинские
Режиссёр: Джонатан Райт
Сценарий: Jennifer Archer, Mike Horrigan, Джонатан Райт
Продюсер: Майкл Бэйкер, Джефф Сэкман, Аарон Барнетт
Оператор: Борис Мойсовски
Композитор: Марк Корвен
Художник: Aer Agrey, Дженнифер Страуд
Монтаж: Марк Арчери
В ролях: Шейн Уэст, Лесли Бибб, Мэтт Крэйвен, Стивен МакХэтти, Николас Кэмпбелл, Кеннет Уэлш, Джейсон Хук, Джон Брегар, Ева Линк, Jennie Esnard

Мировая премьера: 9 июня 2017

Описание: У семейной пары Мика и Зои плачевное финансовое положение — они живут в трейлере, и Мик перебивается случайными подработками. Однажды к ним в руки попадают старые киноплёнки, которые оказываются снятыми известным серийным убийцей Зодиаком. Тот орудовал в конце 60-х годов в Сан-Франциско и так и не был пойман. Прельстившись наградой в 100000 долларов, они не относят плёнки в полицию, а вместе с другом, содержащим ломбард, пытаются вычислить Зодиака самостоятельно.Качество исходника: WEB-DL 1080p (BlueBird)
Качество: WEB-DL
Тип: HD (1080p)
Контейнер: M4V
Видео: H.264, 1920x796, 2.40:1, 4 560 Kbps, 23.976 fps

Аудио 1: Русский/Многоголосый закадровый (iTunes), AAC / 2.0 / 160 Kbps / 48.0 KHz
Аудио 2: Английский/Оригинальная дорожка , AAC / 2.0 / 160 Kbps / 48.0 KHz
Аудио 3: Русский/Многоголосый закадровый (iTunes), AC-3 / 5.1 / 384 Kbps / 48.0 KHz
Аудио 4: Английский/Оригинальная дорожка , AC-3 / 5.1 / 384 Kbps / 48.0 KHz

Субтитры 1: Русские полные
Субтитры 2: Английские полные
Субтитры 3: Украинские полные
Sort Name: Awakening the Zodiac
XID: Apple:vendor_id:1032767
contentID: 1226891820
Screenwriters: Jennifer Archer, Mike Horrigan, Джонатан Райт
Producers: Майкл Бэйкер, Джефф Сэкман, Аарон Барнетт
Director: Джонатан Райт
Cast: Шейн Уэст, Лесли Бибб, Мэтт Крэйвен, Стивен МакХэтти, Николас Кэмпбелл, Кеннет Уэлш, Джейсон Хук, Джон Брегар, Ева Линк, Jennie Esnard
Studio: Bunk 11 Pictures
Rating: 5
Long Description: У семейной пары Мика и Зои плачевное финансовое положение - они живут в трейлере, и Мик перебивается случайными подработками. Однажды к ним в руки попадают старые киноплёнки, которые оказываются снятыми известным серийным убийцей Зодиаком. Тот орудовал в конце 60-х годов в Сан-Франциско и так и не был пойман. Прельстившись наградой в 100000 долларов, они не относят плёнки в полицию, а вместе с другом, содержащим ломбард, пытаются вычислить Зодиака самостоятельно.
Description: У семейной пары Мика и Зои плачевное финансовое положение - они живут в трейлере, и Мик перебивается случайными подработками. Однажды к ним в руки попадают старые киноплёнки, которые оказываются снятыми известным серийным убийцей Зодиаком. Тот орудовал в конце 60-х годов в Сан-Франциско и так и не был пойман. Прельстившись наградой в 100000 долларов, они не относят плёнки в полицию, а вместе с другом, содержащим ломбард, пытаются вычислить Зодиака самостоятельно.
Release Date: 2017-06-09T08:00:00Z
Genre: Horror
Artist: Jonathan Wright
Name: Awakening the Zodiac
General
Complete name : /Users/imac/HandBrake/Awakening.the.Zodiac.WEB.DL.1080p.m4v
Format : MPEG-4
Codec ID : M4V
File size : 3.95 GiB
Duration : 1h 40mn
Overall bit rate mode : Variable
Overall bit rate : 5 650 Kbps
Movie name : Awakening the Zodiac
Performer : Jonathan Wright
Director : Джонатан Райт
Actor : Шейн Уэст / Лесли Бибб / Мэтт Крэйвен / Стивен МакХэтти / Николас Кэмпбелл / Кеннет Уэлш / Джейсон Хук / Джон Брегар / Ева Линк / Jennie Esnard
Screenplay by : Jennifer Archer / Mike Horrigan / Джонатан Райт
Producer : Майкл Бэйкер / Джефф Сэкман / Аарон Барнетт
Production studio : Bunk 11 Pictures
Genre : Horror
ContentType : Short Film
Description : У семейной пары Мика и Зои плачевное финансовое положение - они живут в трейлере, и Мик перебивается случайными подработками. Однажды к ним в руки попадают старые киноплёнки, которые оказываются снятыми известным серийным убийцей Зодиаком. Тот орудовал в конце 60-х годов в Сан-Франциско и так и не был пойман. Прельстившись наградой в 100000 долларов, они не относят плёнки в полицию, а вместе с другом, содержащим ломбард, пытаются вычислить Зодиака самостоятельно.
Recorded date : UTC 2017-06-09 08:00:00
Encoded date : UTC 2017-09-04 10:07:48
Tagged date : UTC 2017-09-04 10:11:58
Cover : Yes
Rating : None
Title/Sort : Awakening the Zodiac
LongDescription : У семейной пары Мика и Зои плачевное финансовое положение - они живут в трейлере, и Мик перебивается случайными подработками. Однажды к ним в руки попадают старые киноплёнки, которые оказываются снятыми известным серийным убийцей Зодиаком. Тот орудовал в конце 60-х годов в Сан-Франциско и так и не был пойман. Прельстившись наградой в 100000 долларов, они не относят плёнки в полицию, а вместе с другом, содержащим ломбард, пытаются вычислить Зодиака самостоятельно.
AppleStoreCatalogID : 1226891820
Vendor : Apple:vendor_id:1032767
ContentRating : mpaa|R|400|

Video #1
ID : 1
Format : AVC
Format/Info : Advanced Video Codec
Format profile : High@L4
Format settings, CABAC : Yes
Format settings, ReFrames : 5 frames
Codec ID : avc1
Codec ID/Info : Advanced Video Coding
Duration : 1h 40mn
Bit rate : 4 560 Kbps
Width : 1 920 pixels
Height : 796 pixels
Display aspect ratio : 2.40:1
Frame rate mode : Variable
Frame rate : 23.976 fps
Minimum frame rate : 23.810 fps
Maximum frame rate : 24.390 fps
Color space : YUV
Chroma subsampling : 4:2:0
Bit depth : 8 bits
Scan type : Progressive
Bits/(Pixel*Frame) : 0.124
Stream size : 3.19 GiB (81%)
Title : Main Program
Language : English
Encoded date : UTC 2017-09-04 10:07:48
Tagged date : UTC 2017-09-04 10:09:51
Color range : Limited
Color primaries : BT.709
Transfer characteristics : BT.709
Matrix coefficients : BT.709

Video #2
ID : 10
Format : JPEG
Codec ID : jpeg
Duration : 1h 40mn
Bit rate mode : Variable
Bit rate : 689 bps
Width : 640 pixels
Height : 265 pixels
Display aspect ratio : 2.40:1
Frame rate mode : Variable
Frame rate : 0.003 fps
Minimum frame rate : 0.002 fps
Maximum frame rate : 0.004 fps
Color space : YUV
Chroma subsampling : 4:2:0
Bit depth : 8 bits
Compression mode : Lossy
Bits/(Pixel*Frame) : 1.354
Stream size : 449 KiB (0%)
Title : Chapter Images
Language : English
Encoded date : UTC 2017-09-04 10:09:55
Tagged date : UTC 2017-09-04 10:09:55

Audio #1
ID : 2
Format : AAC
Format/Info : Advanced Audio Codec
Format profile : LC
Codec ID : 40
Duration : 1h 40mn
Bit rate mode : Variable
Bit rate : 155 Kbps
Maximum bit rate : 249 Kbps
Channel(s) : 2 channels
Channel positions : Front: L R
Sampling rate : 48.0 KHz
Compression mode : Lossy
Stream size : 111 MiB (3%)
Title : Russian Stereo
Language : Russian
Encoded date : UTC 2017-09-04 10:07:48
Tagged date : UTC 2017-09-04 10:07:53

Audio #2
ID : 3
Format : AAC
Format/Info : Advanced Audio Codec
Format profile : LC
Codec ID : 40
Duration : 1h 40mn
Bit rate mode : Variable
Bit rate : 156 Kbps
Maximum bit rate : 267 Kbps
Channel(s) : 2 channels
Channel positions : Front: L R
Sampling rate : 48.0 KHz
Compression mode : Lossy
Stream size : 111 MiB (3%)
Title : English Stereo
Language : English
Encoded date : UTC 2017-09-04 10:07:48
Tagged date : UTC 2017-09-04 10:07:53

Audio #3
ID : 4
Format : AC-3
Format/Info : Audio Coding 3
Mode extension : CM (complete main)
Format settings, Endianness : Big
Codec ID : ac-3
Duration : 1h 40mn
Bit rate mode : Constant
Bit rate : 384 Kbps
Channel(s) : 6 channels
Channel positions : Front: L C R, Side: L R, LFE
Sampling rate : 48.0 KHz
Bit depth : 16 bits
Compression mode : Lossy
Stream size : 275 MiB (7%)
Title : Russian DD 5.1
Language : Russian
Encoded date : UTC 2017-09-04 10:07:48
Tagged date : UTC 2017-09-04 10:09:51

Audio #4
ID : 5
Format : AC-3
Format/Info : Audio Coding 3
Mode extension : CM (complete main)
Format settings, Endianness : Big
Codec ID : ac-3
Duration : 1h 40mn
Bit rate mode : Constant
Bit rate : 384 Kbps
Channel(s) : 6 channels
Channel positions : Front: L C R, Side: L R, LFE
Sampling rate : 48.0 KHz
Bit depth : 16 bits
Compression mode : Lossy
Stream size : 275 MiB (7%)
Title : English DD 5.1
Language : English
Encoded date : UTC 2017-09-04 10:07:48
Tagged date : UTC 2017-09-04 10:09:51

Text #1
ID : 6
Format : Timed Text
Muxing mode : sbtl
Codec ID : tx3g
Duration : 1h 39mn
Bit rate mode : Variable
Bit rate : 82 bps
Stream size : 59.7 KiB (0%)
Title : Russian full
Language : Russian
Encoded date : UTC 2017-09-04 10:07:48
Tagged date : UTC 2017-09-04 10:09:51

Text #2
ID : 7
Format : Timed Text
Muxing mode : sbtl
Codec ID : tx3g
Duration : 1h 37mn
Bit rate mode : Variable
Bit rate : 55 bps
Stream size : 39.2 KiB (0%)
Title : English full
Language : English
Encoded date : UTC 2017-09-04 10:07:48
Tagged date : UTC 2017-09-04 10:09:51

Text #3
ID : 8
Format : Timed Text
Muxing mode : sbtl
Codec ID : tx3g
Duration : 1h 39mn
Bit rate mode : Variable
Bit rate : 78 bps
Stream size : 57.1 KiB (0%)
Title : Ukrainian full
Language : Ukrainian
Encoded date : UTC 2017-09-04 10:07:48
Tagged date : UTC 2017-09-04 10:09:51

Menu #1
00:00:00.000 : Chapter 01
00:05:16.024 : Chapter 02
00:12:16.736 : Chapter 03
00:17:36.722 : Chapter 04
00:23:33.995 : Chapter 05
00:29:34.271 : Chapter 06
00:36:26.599 : Chapter 07
00:44:18.696 : Chapter 08
00:48:23.357 : Chapter 09
00:53:29.913 : Chapter 10
01:00:02.388 : Chapter 11
01:06:43.789 : Chapter 12
01:12:27.048 : Chapter 13
01:18:00.256 : Chapter 14
01:24:03.369 : Chapter 15
01:33:50.789 : Chapter 16

Menu #2
ID : 9
Codec ID : text
Duration : 1h 40mn
Language : English
Encoded date : UTC 2017-09-04 10:09:51
Tagged date : UTC 2017-09-04 10:09:51
Bit rate mode : CBR
00:00:00.000 : Chapter 01
00:05:16.024 : Chapter 02
00:12:16.736 : Chapter 03
00:17:36.722 : Chapter 04
00:23:33.995 : Chapter 05
00:29:34.271 : Chapter 06
00:36:26.599 : Chapter 07
00:44:18.696 : Chapter 08
00:48:23.357 : Chapter 09
00:53:29.913 : Chapter 10
01:00:02.388 : Chapter 11
01:06:43.789 : Chapter 12
01:12:27.048 : Chapter 13
01:18:00.256 : Chapter 14
01:24:03.369 : Chapter 15
01:33:50.789 : Chapter 16
Релиз подготовлен для просмотра на Apple TV, iPad, iPhone, iPod Touch.
Для просмотра данного релиза на компьютере с ОС Windows рекомендуется использовать VLC media player

Трекер:  [ 04-Сен-2017 13:42 ]

  

Скачать .torrent

Размер .torrent файла 40 KB


Размер: 3.95 GB
Хэш (hash) релиза: b9ffef67fd3ceda210237495540d0e1800ddd03f

Еще никто не оставлял запись к записи скачать торрент [ATV3] Пробуждение Зодиака Awakening the Zodiac . Будь первым!

!Обратная связь