Скачать через торрент Собачье счастье Фильм бесплатно в хорошем качестве torrent

Скачивайте на UnionPeer.org фильмы через торрент без регистрации. Новинки кино в хорошем качестве через торрент. На UnionPeer.org можно скачать через торрент фильмы 2014 и 2015 годов. Самые новые фильмы.

Скачать торрент Собачье счастье бесплатно через .torrent фильм мультфильм сериал

Если у вас наблюдаются проблемы со скриншотами, переходом по ссылками, скачиванием торрентов - проблемы в блокировщике рекламы AdBlock. #хорошегоДня!


Статистика раздачи
Размер:  3.85 GB   |    Зарегистрирован:  2 месяца 21 день   |    .torrent скачан:  3 раза   |   
Раздают:  1  
   
Загрузка...
 
Автор Сообщение

Galfimbul

avatar Galfimbul


Собачье счастье
Год выпуска: 1991.
Жанр: детский.
Продолжительность: 01:05:43.

Режиссеры: Александр Згуриди, Нана Клдиашвили.

В ролях:
Дима Мосолов, Александр Овчинников, Николай Ермаков, Надежда Бутырцева, Олег Вавилов, Светлана Коркошко, Михаил Зимин, Геннадий Кочкожаров, Юрий Саранцев, Мария Скворцова.

Описание:
Пудель по кличке Малыш увязался за своим маленьким хозяином в школу, но там был выдворен на школьный двор и потерялся. Андрей и его родители искали Малыша по всему городу, но тот как в воду канул.

Доп. информация:
Страна: СССР .
Киностудия: Центрнаучфильм, "Орбита".

Авторы сценария: Нана Клдиашвили, Александр Згуриди.
Оператор: Александр Павлов.
Композитор: Андрей Петров.
Художник: Лев Грудев.

Премьера: июнь 1992 года.



Релиз
Огромное спасибо Ellies731 за старую видеокассету и видеозахват!!!
Работа с исходником, вырезание рекламы с помощью программы Avidemux 2.6.21.
Качество, конечно, не идеальное, но других вариантов пока не найдено.



Качество: VHSRip
Формат: mpg

Видео: 720x480, 29.970 fps, mpeg2, ~8000 kbps, 0.772 bit/pixel*frame
Аудио: 48 kHz, MPEG Audio, 2/0 (L,R) ch, ~224 kbps
General
Complete name : Soba4'e.s4ast'e.1991.mpeg2.VHSRip.fenixclub.mpg
Format : MPEG-PS
File size : 3.85 GiB
Duration : 1h 5mn
Overall bit rate : 8 376 Kbps

Video
ID : 224 (0xE0)
Format : MPEG Video
Format version : Version 2
Format profile : Main@Main
Format settings, BVOP : Yes
Format settings, Matrix : Default
Format settings, GOP : M=3, N=15
Duration : 1h 5mn
Bit rate : 8 000 Kbps
Width : 720 pixels
Height : 480 pixels
Display aspect ratio : 4:3
Frame rate : 29.970 (30000/1001) fps
Standard : NTSC
Color space : YUV
Chroma subsampling : 4:2:0
Bit depth : 8 bits
Scan type : Progressive
Compression mode : Lossy
Bits/(Pixel*Frame) : 0.772
Time code of first frame : 00:00:00:00
Time code source : Group of pictures header
GOP, Open/Closed : Closed
Stream size : 3.67 GiB (95%)
Color primaries : BT.470 System M
Transfer characteristics : BT.470 System M
Matrix coefficients : BT.601

Audio
ID : 192 (0xC0)
Format : MPEG Audio
Format version : Version 1
Format profile : Layer 2
Duration : 1h 5mn
Bit rate mode : Constant
Bit rate : 224 Kbps
Channel(s) : 2 channels
Sampling rate : 48.0 KHz
Compression mode : Lossy
Delay relative to video : 147ms
Stream size : 105 MiB (3%)

Menu


Трекер:  [ 04-Сен-2017 09:54 ]

  

Скачать .torrent

Размер .torrent файла 19 KB


Размер: 3.85 GB
Хэш (hash) релиза: b1e12d129c0ffac06937789f4dcce01c637b2be3
Подписка на обновления:

Торренты, похожие на Собачье счастье скачать торрент

Форум Название Автор Размер S L Добавлен
Российские фильмы до 2016 ·· Собачье счастье (Александр Згуриди, Нана Клдиашвили) [1991, детский, VHSRip] Galfimbul 11688386561.09 GB 0 0 1504508682

10:04

4-Сен-17

Еще никто не оставлял запись к записи скачать торрент Собачье счастье . Будь первым!

!Обратная связь