Скачать через торрент Собачье счастье Фильм бесплатно в хорошем качестве torrent

Скачивайте на UnionPeer.org фильмы через торрент без регистрации. Новинки кино в хорошем качестве через торрент. На UnionPeer.org можно скачать через торрент фильмы 2014 и 2015 годов. Самые новые фильмы.

Скачать торрент Собачье счастье бесплатно через .torrent фильм мультфильм сериал

Если у вас наблюдаются проблемы со скриншотами, переходом по ссылками, скачиванием торрентов - проблемы в блокировщике рекламы AdBlock. #хорошегоДня!


Статистика раздачи
Размер:  1.09 GB   |    Зарегистрирован:  2 месяца 21 день   |    .torrent скачан:  1 раз   |   
Раздают:  1  
   
Загрузка...
 
Автор Сообщение

Galfimbul

avatar Galfimbul


Собачье счастье
Год выпуска: 1991.
Жанр: детский.
Продолжительность: 01:05:43.

Режиссеры: Александр Згуриди, Нана Клдиашвили.

В ролях:
Дима Мосолов, Александр Овчинников, Николай Ермаков, Надежда Бутырцева, Олег Вавилов, Светлана Коркошко, Михаил Зимин, Геннадий Кочкожаров, Юрий Саранцев, Мария Скворцова.

Описание:
Пудель по кличке Малыш увязался за своим маленьким хозяином в школу, но там был выдворен на школьный двор и потерялся. Андрей и его родители искали Малыша по всему городу, но тот как в воду канул.

Доп. информация:
Страна: СССР .
Киностудия: Центрнаучфильм, "Орбита".

Авторы сценария: Нана Клдиашвили, Александр Згуриди.
Оператор: Александр Павлов.
Композитор: Андрей Петров.
Художник: Лев Грудев.

Премьера: июнь 1992 года.



Релиз
Огромное спасибо Ellies731 за предоставленый материал для рипа!!!
Качество, конечно, не идеальное, но других вариантов пока не найдено.



Качество: VHSRip
Формат: AVI

Видео: 688x528 (1.30:1), 23.976 fps, XviD build 73 ~2169 kbps avg, 0.25 bit/pixel
Аудио: 48 kHz, AC3 Dolby Digital, 2/0 (L,R) ch, ~192 kbps
General
Complete name : Soba4'e.s4ast'e.1991.XviD.VHSRip.fenixclub_1.09.avi
Format : AVI
Format/Info : Audio Video Interleave
File size : 1.09 GiB
Duration : 1h 5mn
Overall bit rate : 2 371 Kbps
Writing application : VirtualDubMod 1.5.10.3 | www.virtualdub-fr.org || (build 2550/release)
Writing library : VirtualDubMod build 2550/release

Video
ID : 0
Format : MPEG-4 Visual
Format profile : Advanced Simple@L5
Format settings, BVOP : 1
Format settings, QPel : No
Format settings, GMC : No warppoints
Format settings, Matrix : Custom
Codec ID : XVID
Codec ID/Hint : XviD
Duration : 1h 5mn
Bit rate : 2 170 Kbps
Width : 688 pixels
Height : 528 pixels
Display aspect ratio : 4:3
Frame rate : 23.976 (23976/1000) fps
Color space : YUV
Chroma subsampling : 4:2:0
Bit depth : 8 bits
Scan type : Progressive
Compression mode : Lossy
Bits/(Pixel*Frame) : 0.249
Stream size : 1 020 MiB (92%)
Writing library : XviD 73

Audio
ID : 1
Format : AC-3
Format/Info : Audio Coding 3
Mode extension : CM (complete main)
Format settings, Endianness : Big
Codec ID : 2000
Duration : 1h 5mn
Bit rate mode : Constant
Bit rate : 192 Kbps
Channel(s) : 2 channels
Channel positions : Front: L R
Sampling rate : 48.0 KHz
Frame rate : 31.250 fps (1536 spf)
Compression mode : Lossy
Stream size : 90.3 MiB (8%)
Alignment : Split accross interleaves
Interleave, duration : 42 ms (1.00 video frame)
Interleave, preload duratio : 500 ms.


Трекер:  [ 04-Сен-2017 09:54 ]

  

Скачать .torrent

Размер .torrent файла 11 KB


Размер: 1.09 GB
Хэш (hash) релиза: 63f84cd864cfebfbb6666246782098668c278856
Подписка на обновления:

Торренты, похожие на Собачье счастье скачать торрент

Форум Название Автор Размер S L Добавлен
Российские фильмы до 2016 ·· Собачье счастье (Александр Згуриди, Нана Клдиашвили) [1991, детский, VHSRip] Galfimbul 41292779523.85 GB 0 0 1504508691

10:04

4-Сен-17

Еще никто не оставлял запись к записи скачать торрент Собачье счастье . Будь первым!

!Обратная связь