Скачать через торрент Каминг Аут Фильм бесплатно в хорошем качестве torrent

Скачивайте на UnionPeer.org фильмы через торрент без регистрации. Новинки кино в хорошем качестве через торрент. На UnionPeer.org можно скачать через торрент фильмы 2014 и 2015 годов. Самые новые фильмы.

Скачать торрент Каминг Аут бесплатно через .torrent фильм мультфильм сериал

Если у вас наблюдаются проблемы со скриншотами, переходом по ссылками, скачиванием торрентов - проблемы в блокировщике рекламы AdBlock. #хорошегоДня!


Статистика раздачи
Размер:  260 MB   |    Зарегистрирован:  17 дней   |    .torrent скачан:  110 раз   |   
Раздают:  4  
   
Загрузка...
 
Автор Сообщение

Galfimbul

avatar Galfimbul


Каминг Аут

Год выхода: 2017
Жанр: короткометражка, сатира
Режиссер: Герман Полозов
В ролях: Дамир Миркамилов, Вячеслав Гардер, Евгений Чистяков

О фильме:
Спустя пару недель после оформления ипотеки Андрей узнает, что может потерять свою работу начальника отдела маркетинга из-за нового одиозного законопроекта, который получил поддержку в госдуме.

Страна: Россия
Студия: AG Films
Продолжительность: 00:14:59

Файл
Кодек: h.264
[b]Качество:
WEBRip 1080p
Видео: 1920x804, ~ 2293 kbps, 24.000 fps
Звук: AAC | 48.0 KHz | 2 ch | 126 kbps

Complete name : D:ComingOutWEBRip1080p.mp4
Format : MPEG-4
Format profile : Base Media
Codec ID : isom
File size : 260 MiB
Duration : 14mn 59s
Overall bit rate : 2 424 Kbps
Writing application : Lavf56.25.101

Video #1
ID : 1
Format : AVC
Format/Info : Advanced Video Codec
Format profile : High@L4.0
Format settings, CABAC : Yes
Format settings, ReFrames : 2 frames
Codec ID : avc1
Codec ID/Info : Advanced Video Coding
Duration : 14mn 59s
Bit rate : 2 293 Kbps
Width : 1 920 pixels
Height : 804 pixels
Display aspect ratio : 2.40:1
Frame rate mode : Constant
Frame rate : 24.000 fps
Color space : YUV
Chroma subsampling : 4:2:0
Bit depth : 8 bits
Scan type : Progressive
Bits/(Pixel*Frame) : 0.062
Stream size : 246 MiB (95%)
Color primaries : BT.709
Transfer characteristics : BT.709
Matrix coefficients : BT.709

Audio #2
ID : 2
Format : AAC
Format/Info : Advanced Audio Codec
Format profile : LC
Codec ID : 40
Duration : 14mn 59s
Bit rate mode : Constant
Bit rate : 126 Kbps
Channel(s) : 2 channels
Channel positions : Front: L R
Sampling rate : 44.1 KHz
Compression mode : Lossy
Delay relative to video : 42ms
Stream size : 13.5 MiB (5%)
Источник http://arutor.org

Трекер:  [ 04-Сен-2017 00:00 ]

  

Скачать .torrent

Размер .torrent файла 10 KB


Размер: 260 MB
Хэш (hash) релиза: 0e9f8515cc2c9cd236da5333cf11b1971b68a56f
Подписка на обновления:

Еще никто не оставлял запись к записи скачать торрент Каминг Аут . Будь первым!

!Обратная связь