Скачать через торрент КВН-2017. Премьер лига. 2 Полуфинал КВН-2017. Премьер лига. 2 Полуфинал Фильм бесплатно в хорошем качестве torrent

Скачивайте на UnionPeer.org фильмы через торрент без регистрации. Новинки кино в хорошем качестве через торрент. На UnionPeer.org можно скачать через торрент фильмы 2014 и 2015 годов. Самые новые фильмы.

Скачать торрент КВН-2017. Премьер лига. 2 Полуфинал КВН-2017. Премьер лига. 2 Полуфинал бесплатно через .torrent фильм мультфильм сериал

Если у вас наблюдаются проблемы со скриншотами, переходом по ссылками, скачиванием торрентов - проблемы в блокировщике рекламы AdBlock. #хорошегоДня!


Статистика раздачи
Размер:  2.18 GB   |    Зарегистрирован:  18 дней   |    .torrent скачан:  11 раз   |   
Раздают:  1  
   
Загрузка...
 
Автор Сообщение

Galfimbul

avatar Galfimbul


КВН-2017. Премьер лига. 2 Полуфинал / КВН-2017. Премьер лига. 2 Полуфинал

Дата/Год выпуска: 03.09.2017
Страна: Россия
Жанр: КВН
Продолжительность: 01:10:18
Перевод: Не требуется
Режиссер: Светлана Маслякова

Телеканал: Первый
Описание: Что такое КВН, знают, без сомнения, все. В КВН играют во всем мире, это прежде всего молодежная игра. Постоянные конкурсные задания: "Визитная карточка", "Разминка", "Конкурс капитанов", "Музыкальный конкурс", "Домашнее задание". Игру команд оценивает профессиональное жюри — люди, у которых с чувством юмора все в порядке, многие из них раньше сами играли в КВН. Среди членов жюри были Константин Эрнст, Леонид Парфенов, Юлий Гусман, Леонид Ярмольник, Валдис Пельш, Сергей Шолохов, Геннадий Хазанов и другие. Кроме самих игр проводятся ежегодные встречи: фестиваль команд КВН (с 1990 г., семь раз фестиваль проходил в г.Сочи), музыкальный фестиваль КВН, летний кубок КВН, международные товарищеские игры в КВН. Сборная КВН играет со сборными других стран. Уже состоялись игры между сборной КВН и сборными Америки, Австралии, Израиля... Игра в КВН для многих становится профессией, а многие благодаря игре связывают жизнь с искусством. Из КВН "вышли": Леонид Якубович, Михаил Марфин, Татьяна Лазарева, Олег Филимонов, Юлий Гусман и многие другие.

качество: WEBRip
формат: MKV
Видео: AVC, 1920x1080 (16:9), 25.000 fps, 4 163 Kbps (0.080 bit/pixel)
Аудио: AC-3, 44.1 KHz, 2 ch, 192 Kbps, CBR
ОбщееУникальный идентификатор : 233550434548682265906126068647077456420 (0xAFB42D7367C4CB568D84840223E5AA24)Полное имя : D:\квн\КВН-2017. Премьер лига. 2 Полуфинал.mkvФормат : MatroskaВерсия формата : Version 4 / Version 2Размер файла : 2,18 ГбайтПродолжительность : 1 ч. 10 м.Общий поток : 4444 Кбит/секНазвание фильма : КВН-2017. Премьер лига. Полуфинал. Игра 2 (2017.09.02)_1080_ СПАМДата кодирования : UTC 2017-09-03 06:38:14Программа кодирования : mkvmerge v9.5.0 ('Quiet Fire') 64bitБиблиотека кодирования : libebml v1.3.4 libmatroska v1.4.5

ВидеоИдентификатор : 1Формат : AVCФормат/Информация : Advanced Video CodecПрофиль формата : High@L4Параметр CABAC формата : ДаПараметр ReFrames формата : 2 кадраИдентификатор кодека : V_MPEG4/ISO/AVCПродолжительность : 1 ч. 10 м.Битрейт : 4250 Кбит/секШирина : 1920 пикселейВысота : 1080 пикселейСоотношение сторон : 16:9Режим частоты кадров : ПостоянныйЧастота кадров : 25,000 кадров/секЦветовое пространство : YUVСубдискретизация насыщенности : 4:2:0Битовая глубина : 8 битТип развёртки : ПрогрессивнаяБит/(Пиксели*Кадры) : 0.082Размер потока : 2,09 Гбайт (96%)Default : ДаForced : НетЦветовой диапазон : LimitedОсновные цвета : BT.709Характеристики трансфера : BT.709Коэффициенты матрицы : BT.709

АудиоИдентификатор : 2Формат : AC-3Формат/Информация : Audio Coding 3Расширение режима : CM (complete main)Параметр Endianness формата : BigИдентификатор кодека : A_AC3Продолжительность : 1 ч. 10 м.Вид битрейта : ПостоянныйБитрейт : 192 Кбит/секКаналы : 2 каналаРасположение каналов : Front: L RЧастота : 44,1 КГцЧастота кадров : 28,711 кадров/сек (1536 spf)Битовая глубина : 16 битМетод сжатия : С потерямиРазмер потока : 96,6 Мбайт (4%)Default : ДаForced : Нет


Трекер:  [ 03-Сен-2017 20:42 ]

  

Скачать .torrent

Размер .torrent файла 11 KB


Размер: 2.18 GB
Хэш (hash) релиза: 7959e7e8c330fa56d2c711768a0d65feeaa4221e
Подписка на обновления:

Еще никто не оставлял запись к записи скачать торрент КВН-2017. Премьер лига. 2 Полуфинал КВН-2017. Премьер лига. 2 Полуфинал . Будь первым!

!Обратная связь