Скачать через торрент Х - Фактор - 8 X Factor 8 UA Фильм бесплатно в хорошем качестве torrent

Скачивайте на UnionPeer.org фильмы через торрент без регистрации. Новинки кино в хорошем качестве через торрент. На UnionPeer.org можно скачать через торрент фильмы 2014 и 2015 годов. Самые новые фильмы.

Скачать торрент Х - Фактор - 8 X Factor 8 UA бесплатно через .torrent фильм мультфильм сериал

Если у вас наблюдаются проблемы со скриншотами, переходом по ссылками, скачиванием торрентов - проблемы в блокировщике рекламы AdBlock. #хорошегоДня!


Статистика раздачи
Размер:  2.59 GB   |    Зарегистрирован:  2 месяца 21 день   |    .torrent скачан:  19 раз   |   
Раздают:  1  
   
Загрузка...
 
Автор Сообщение

Galfimbul

avatar Galfimbul


Х - Фактор - 8 / X Factor 8 UA

Дата/Год выпуска: 02.09.2017.
Страна: Украина
Жанр: Шоу
Продолжительность: 02:44:48
Перевод: Не требуется
Телеканал: Украина ТК "СТБ"
Описание: Восьмой сезон начинается с 2 сентября 2017 года. Ведущий шоу — Андрей Бедняков. Новыми судьями стали Анастасия Каменских, Олег Винник и Дмитрий Шуров. С прошлого состава возвращается Андрей Данилко. Также возвращается этап "прослушивания в домах судей", а этап со стульями объединен с прослушиваниями в тренировочном лагере.

качество: SATRip
формат: AVI
Видео: Xvid 720x400 25fps 2048kbps
Аудио: MP3 48000Hz stereo 192kbps
Внимание! Раздача ведётся путём добавления новых концертов ; при каждом добавлении создаётся новый
торрент. Чтобы начать докачку новый концертов, пользователям необходимо сделать следующее:
(1) остановить скачивание,
(2) удалить старый торрент у себя из клиента (старые концерты удалять не надо),
(3) скачать новый торрент и запустить его у себя в клиенте вместо старого, при этом указать клиенту путь в старую папку куда и должно происходить скачивание новых концертов.
Ваш клиент при этом должен произвести хеширование (проверку) старой папки (если не производит сам - помогите ему сделать это), и будет докачивать только те концерты которых у вас ещё нет.
Старые концерты при этом не удаляются, а продолжают раздаваться!
Eсли вы уже удалили старые концерты, то предотвратить повторную закачку старых концертов можно, отжав галочку в соответствующих местах при запуске нового торрента. По возможности, желательно
не удалять старые концерты как можно дольше чтобы релизёр не столько продолжал раздавать старые концерты, а смог сконцентрироваться на новых.
1 выпуск .02.09.2017. + судьи-Х. Неизвестные факты.
<div class="sp-wrap">
<div class="sp-head folded">MediaInfo</div>
<div class="sp-body">

Формат : AVIФормат/Информация : Audio Video InterleaveПрофиль формата : OpenDMLРазмер файла : 2,59 ГбайтПродолжительность : 2 ч. 44 м.Общий поток : 2252 Кбит/секБиблиотека кодирования : VirtualDub build 40121/release

ВидеоИдентификатор : 0Формат : MPEG-4 VisualПрофиль формата : Simple@L5Параметр BVOP формата : НетПараметр QPel формата : НетПараметр GMC формата : Без точки переходаПараметр матрицы формата : Default (H.263)Идентификатор кодека : XVIDИдентификатор кодека/Подсказка : XviDПродолжительность : 2 ч. 44 м.Битрейт : 2048 Кбит/секШирина : 720 пикселейВысота : 400 пикселейСоотношение сторон : 16:9Частота кадров : 25,000 кадров/секЦветовое пространство : YUVСубдискретизация насыщенности : 4:2:0Битовая глубина : 8 битТип развёртки : ПрогрессивнаяМетод сжатия : С потерямиБит/(Пиксели*Кадры) : 0.284Размер потока : 2,36 Гбайт (91%)Библиотека кодирования : XviD 73

АудиоИдентификатор : 1Формат : MPEG AudioВерсия формата : Version 1Профиль формата : Layer 3Режим : Joint stereoИдентификатор кодека : 55Идентификатор кодека/Подсказка : MP3Продолжительность : 2 ч. 44 м.Вид битрейта : ПостоянныйБитрейт : 192 Кбит/секКаналы : 2 каналаЧастота : 48,0 КГцМетод сжатия : С потерямиРазмер потока : 226 Мбайт (9%)Выравнивание : Разделение по промежуткамПродолжительность промежутка : 40 мс. (1,00 видеокадр)Время предзагрузки промежутка : 500 мс.
<div class="sp-wrap">
<div class="sp-head folded">Скринлист</div>
<div class="sp-body">
</div>
</div>
</div>
</div>

Трекер:  [ 03-Сен-2017 20:12 ]

  

Скачать .torrent

Размер .torrent файла 13 KB


Размер: 2.59 GB
Хэш (hash) релиза: 3a1781d1f09fe242f82dc3bd3a92f23b59392d6f
Подписка на обновления:

Торренты, похожие на Х - Фактор - 8 X Factor 8 UA скачать торрент

Форум Название Автор Размер S L Добавлен
Развлекательные телепередачи и шоу ·· Х - Фактор - 8 / X Factor 8 UA [(выпуски 11-?)2017., Шоу, SATRip] Galfimbul 39236414743.65 GB 0 0 1510480037

12:47

12-Ноя-17

Развлекательные телепередачи и шоу ·· Х - Фактор - 7 / X Factor 7 UA (выпуски 1 - 8)[2016, Шоу, SATRip] Galfimbul 2514465667823.42 GB 0 0 1477244570

20:42

23-Окт-16

Развлекательные телепередачи и шоу ·· Х - Фактор - 7 / X Factor 7 UA (выпуски 1-8)[2016, Шоу, SATRip] Galfimbul 2172313868820.23 GB 0 0 1476575947

02:59

16-Окт-16

Еще никто не оставлял запись к записи скачать торрент Х - Фактор - 8 X Factor 8 UA . Будь первым!

!Обратная связь