Скачать через торрент Котоура-сан Kotoura-san бесплатно Аниме Все серии на русском torrent

Если у вас наблюдаются проблемы со скриншотами, переходом по ссылками, скачиванием торрентов - проблемы в блокировщике рекламы AdBlock. #хорошегоДня!


Статистика раздачи
Размер:  71.76 GB   |    Зарегистрирован:  15 дней   |    .torrent скачан:  4 раза   |   
Раздают:  1  
   
Загрузка...
 
Автор Сообщение

Galfimbul

avatar Galfimbul


Котоура-сан / Kotoura-san

Год выпуска: 2013
Страна: Япония
Жанр: комедия, романтика, драма
Тип: TV
Продолжительность: 12 эп. по 24 мин.
Озвучка:

Одноголосая (муж) от Rise (Genshiken)
Двухголосая (муж/жен) от Cuba77 & Trina D (AniDub)

Русские субтитры: есть (отдельным файлом, формат .ass)
Перевод:

General TAB, Kasumi, Schum, Tassadar

Хардсаб: НетРежиссер: Ота Масахико
Студия: AIC

Описание: Непохожим на других всегда живется тяжко – в этом на горьком опыте убедилась Харука Котоура, с детства слышащая чужие мысли. Быть рядом с человеком, для которого ты словно открытая книга – нелегкое испытание. Даже родная мать его не выдержала и сбежала, бросив «чудовище» на попечение деда. Легко предсказать реакцию окружающих, когда те узнавали, с кем их свела судьба. Неудивительно, что Харуке приходилось часто менять учебные заведения, пока в 15 лет она не пришла в очередную старшую школу. Там девушка и поняла, наконец, что свет не без добрых людей!

Отнюдь не все вокруг нас – трусоватые эгоисты, что любят только себя. Например, Ёсихиза Манабэ куда больше любит девушек, а по богатству фантазии парень (к ужасу Котоуры) – просто гений. Он и другом Харуки стал, потому что мыслей не стесняется: ведь что естественно, то не безобразно! Для Юрико Мифунэ, президента школьного клуба эсперов, Котоура стала ответом на вопрос, который она долго ждала, у ее загадочного помощника Мурото свои мотивы, а для местной красавицы Хиёри Моритани новенькая стала злейшей подругой и лучшей соперницей… или наоборот? В общем, это и называется нормальной жизнью!
© Hollow, World Art

Качество: Blu-Ray Remux
Формат: MKV
Видео кодек: AVC
Аудио кодек: FLAC
Видео: 1920x1080 (16:9) 23,976 fps ~30 Mbps 8bit
Аудио:
Jap FLAC, 48000Hz, ~1380 Kbps, 2ch
RUS 1-2 (ext) AC3, 48000Hz, ~192 Kbps, 2ch

Чаптеры присутствуют.
01. Котоура и Манабэ
02. Первый раз...
03. Радостно и весело
04. Изменчивый мир
05. Школа – рай?
06. Летние каникулы!
07. В целом мире я...
08. Ничуть не свидание
09. В кругу друзей
10. Когда ты не со мной
11. Будь со мной
12. Хочу тебе признаться
Общее
Уникальный идентификатор : 179659493943250165514823425115838103493 (0x872928F060C0A32B9361797B5E923FC5)
Полное имя : M:\pub\Video\Anime\Kotoura-san\[anti-raws]Kotoura-san ep.01[BDRemux].mkv
Формат : Matroska
Версия формата : Version 4 / Version 2
Размер файла : 5,32 Гбайт
Продолжительность : 23 м. 42 с.
Режим общего битрейта : Переменный
Общий поток : 32,1 Мбит/сек
Дата кодирования : UTC 2017-09-03 09:48:35
Программа кодирования : mkvmerge v15.0.0 ('Duel with the Devil') 64-bit
Библиотека кодирования : libebml v1.3.5 + libmatroska v1.4.5

Видео
Идентификатор : 2
Формат : AVC
Формат/Информация : Advanced Video Codec
Профиль формата : High@L4.1
Параметр CABAC формата : Да
Параметр ReFrames формата : 2 кадра
Параметр GOP формата : M=3, N=12
Идентификатор кодека : V_MPEG4/ISO/AVC
Продолжительность : 23 м. 42 с.
Вид битрейта : Переменный
Битрейт : 30,8 Мбит/сек
Максимальный битрейт : 38,0 Мбит/сек
Ширина : 1920 пикселей
Высота : 1080 пикселей
Соотношение сторон : 16:9
Режим частоты кадров : Постоянный
Частота кадров : 23,976 (24000/1001) кадра/сек
Цветовое пространство : YUV
Субдискретизация насыщенности : 4:2:0
Битовая глубина : 8 бит
Тип развёртки : Прогрессивная
Бит/(Пиксели*Кадры) : 0.619
Размер потока : 5,09 Гбайт (96%)
Default : Нет
Forced : Нет
Цветовой диапазон : Limited
Основные цвета : BT.709
Характеристики трансфера : BT.709
Коэффициенты матрицы : BT.709

Аудио
Идентификатор : 1
Формат : FLAC
Формат/Информация : Free Lossless Audio Codec
Идентификатор кодека : A_FLAC
Продолжительность : 23 м. 42 с.
Вид битрейта : Переменный
Битрейт : 1379 Кбит/сек
Каналы : 2 канала
Расположение каналов : Front: L R
Частота : 48,0 КГц
Частота кадров : 11,719 кадров/сек (4096 spf)
Битовая глубина : 24 бит
Размер потока : 234 Мбайт (4%)
Библиотека кодирования : libFLAC 1.2.1 (UTC 2007-09-17)
Язык : Japanese
Default : Да
Forced : Нет

Меню
00:00:00.000 : en:00:00:00.000
00:10:43.017 : en:00:10:43.017
00:12:12.982 : en:00:12:12.982
00:21:30.831 : en:00:21:30.831
00:23:25.988 : en:00:23:25.988
...4327013
...4330708
--HDTVRip

...4634047
...4472941
--BDRip

Эта раздача - BDRemux


Трекер:  [ 03-Сен-2017 17:01 ]

  

Скачать .torrent

Размер .torrent файла 98 KB


Размер: 71.76 GB
Хэш (hash) релиза: 78c3cb6652623f41ccc026b8a65472527ef77694
Подписка на обновления:

Торренты, похожие на Котоура-сан Kotoura-san скачать торрент

Форум Название Автор Размер S L Добавлен
Аниме | HD Rips ·· Котоура / Котоура-сан / Kotoura-san [TV] [Без хардсаба] [8 из >12] [RUS(int), JAP+SUB] [2013 г., комедия, драма, школа, HDTVRip] [720p] Polarnik 31199133542.91 GB 0 0 1377808571

23:36

29-Авг-13

Аниме | HD Rips ·· Котоура-сан / Kotoura-san (Ота Масахико) [TV] [12 из 12] [Без хардсаба] [RUS(ext), JAP+SUB] [2013 г., комедия, романтика, драма, школа, BDRip] [1080p] Galfimbul 1907969921217.77 GB 0 0 1390131657

14:40

19-Янв-14

Аниме | HD Rips ·· Котоура-сан / Kotoura-san (Ота Масахико) [TV] [12 из 12] [Без хардсаба] [RUS(ext), JAP+SUB] [2013 г., комедия, романтика, драма, школа, BDRip] [1080p] Galfimbul 1908275941017.77 GB 0 0 1389022037

18:27

6-Янв-14

Аниме | HD Rips ·· Котоура-сан / Kotoura-san (Ота Масахико) [TV] [2 из 12] [без хардсаба] [RUS(ext), JAP+SUB] [2013 г., комедия, романтика, драма, школа, BDRip] [720p] Polarnik 11386484471.06 GB 0 0 1372106686

23:44

24-Июн-13

Аниме | HD Rips ·· Котоура-сан / Kotoura-san (Ота Масахико) [TV] [2 из 12] [Без хардсаба] [RUS(ext), JAP+SUB] [2013 г., комедия, романтика, драма, школа, BDRip] [1080p] Galfimbul 32919540343.07 GB 0 0 1370810790

23:46

9-Июн-13

Аниме | HD Rips ·· Котоура-сан / Kotoura-san (Ота Масахико) [TV] [12 из 12] [без хардсаба] [RUS(int), JAP] [2012 г., комедия, романтика, драма, школа, HDTVRip] [1080p] SilentDimka 50054074144.66 GB 0 0 1370708082

19:14

8-Июн-13

Аниме | HD Rips ·· Котоура-сан / Kotoura-san [TV] [хардсаб] [09-11 из 12] [JAP+SUB] [2013 г., комедия, драма, школа, WebRip] [720p] Galfimbul 664285544634 MB 0 0 1366577901

23:58

21-Апр-13

Аниме | HD Rips ·· Котоура-сан / Kotoura-san [TV] [Без хардсаба] [12 из 12] [RUS(ext), JAP] & [1-8 из 12] [SUB] [2013 г., комедия, драма, школа, HDTVRip] [720p] Polarnik 34364668003.2 GB 0 0 1364891514

11:31

2-Апр-13

Аниме | HD Rips ·· Котоура-сан / Kotoura-san [TV] [01-05 из 12] [Без хардсаба] [RUS(int), JAP] [2013 г., комедия, романтика, драма, школа, эччи, HDTVRip] [720p] WarNomad 16646663471.55 GB 0 0 1362952779

00:59

11-Мар-13

Еще никто не оставлял запись к записи скачать торрент Котоура-сан Kotoura-san . Будь первым!

!Обратная связь