Скачать через торрент Своя игра Фильм бесплатно в хорошем качестве torrent

Скачивайте на UnionPeer.org фильмы через торрент без регистрации. Новинки кино в хорошем качестве через торрент. На UnionPeer.org можно скачать через торрент фильмы 2014 и 2015 годов. Самые новые фильмы.

Скачать торрент Своя игра бесплатно через .torrent фильм мультфильм сериал

Если у вас наблюдаются проблемы со скриншотами, переходом по ссылками, скачиванием торрентов - проблемы в блокировщике рекламы AdBlock. #хорошегоДня!


Статистика раздачи
Размер:  2.79 GB   |    Зарегистрирован:  18 дней   |    .torrent скачан:  3 раза   |   
Раздают:  1  
   
Загрузка...
 
Автор Сообщение

Galfimbul

avatar Galfimbul


Своя игра (Эфир от 03.09.2017)

Дата/Год выпуска: 2017
Страна: Россия
Жанр: Интеллектуальное шоу
Продолжительность: 00:40:43
Перевод: Не требуется
Ведущий: Петр Кулешов

Описание: «Своя игра» — российский вариант всемирно известной телеигры «Jeopardy!». Это одна из немногих по-настоящему интеллектуальных игр на российском телевидении.
В каждом выпуске программы место за игровыми пультами занимают три интеллектуала. Им предстоит отвечать на вопросы из различных областей знаний. Каждый вопрос имеет свою стоимость. Если участник дает верный ответ, сумма переходит к нему на счет, если ошибается — очки снимаются. По ходу игры лидеры могут меняться несколько раз, ведь стремящиеся к победе люди готовы рисковать, лишь бы вырваться вперед.
«Своя игра» — отличный способ проверить свои знания, открыть для себя что-то новое и понаблюдать за азартной борьбой интеллектуалов!

Качество: HDTV 1080i
Контейнер: TS
Видео кодек: H.264
Аудио кодек: MP2
Видео: H264; 1920x1080 (16:9); 25.000 fps; ~9113 Kbps
Аудио: MPEG Audio 48000Hz stereo 192 Кбит/сек
G:\Своя игра 03.09.2017.ts General #1 ID : 1 (0x1) Complete name : G:\Своя игра 03.09.2017.ts Format : MPEG-TS File size : 2.79 GiB Duration : 40mn 43s Overall bit rate mode : Variable Overall bit rate : 9 791 Kbps Video #2104 ID : 2104 (0x838) Menu ID : 104 (0x68) Format : AVC Format/Info : Advanced Video Codec Format profile : High@L4.0 Format settings, CABAC : Yes Format settings, ReFrames : 4 frames Codec ID : 27 Duration : 40mn 43s Bit rate : 9 113 Kbps Width : 1 920 pixels Height : 1 080 pixels Display aspect ratio : 16:9 Frame rate : 25.000 fps Standard : Component Color space : YUV Chroma subsampling : 4:2:0 Bit depth : 8 bits Scan type : Interlaced Scan order : Top Field First Bits/(Pixel*Frame) : 0.176 Stream size : 2.59 GiB (93%) Color primaries : BT.709 Transfer characteristics : BT.709 Matrix coefficients : BT.709 Audio #3104 ID : 3104 (0xC20) Menu ID : 104 (0x68) Format : MPEG Audio Format version : Version 1 Format profile : Layer 2 Codec ID : 3 Duration : 40mn 43s Bit rate mode : Constant Bit rate : 192 Kbps Channel(s) : 2 channels Sampling rate : 48.0 KHz Compression mode : Lossy Delay relative to video : -80ms Stream size : 55.9 MiB (2%) Language : Russian


Трекер:  [ 03-Сен-2017 16:42 ]

  

Скачать .torrent

Размер .torrent файла 14 KB


Размер: 2.79 GB
Хэш (hash) релиза: 77dda95c32622e875366973ca59ec84ab2503bac
Подписка на обновления:

Торренты, похожие на Своя игра скачать торрент

Форум Название Автор Размер S L Добавлен
Развлекательные телепередачи и шоу ·· Своя игра (эфир от 07.03.2015) [Интеллектуальное шоу, игра, SATRip] Galfimbul 651085824621 MB 0 0 1425717201

11:33

7-Мар-15

Развлекательные телепередачи и шоу ·· Своя игра – 2017 год (Юрий Первушин) [2017, Интеллектуальная викторина/телеигра, HDTVRip, Web-DLRip] Galfimbul 91334804688.51 GB 0 0 1505747771

18:16

18-Сен-17

Развлекательные телепередачи и шоу ·· Своя игра (Эфир от 17.09.2017) [2017, Интеллектуальное шоу, HDTV 1080i] Galfimbul 27781530802.59 GB 0 0 1505656039

16:47

17-Сен-17

Развлекательные телепередачи и шоу ·· Своя игра (Эфир от 16.09.2017) [2017, Интеллектуальное шоу, HDTV 1080i] Galfimbul 30982661322.89 GB 0 0 1505575052

18:17

16-Сен-17

Развлекательные телепередачи и шоу ·· Своя игра (Эфир от 10.09.2017) [2017, Интеллектуальное шоу, HDTV 1080i] Galfimbul 28703106802.67 GB 0 0 1505049641

16:20

10-Сен-17

Развлекательные телепередачи и шоу ·· Своя игра (Эфир от 02.09.2017) [2017, Интеллектуальное шоу, HDTV 1080i] Galfimbul 36208455963.37 GB 0 0 1504359972

16:46

2-Сен-17

Развлекательные телепередачи и шоу ·· Своя игра - Кубок Вызова-4 (Юрий Первушин) (73 выпуска из 90) [2003, Интеллектуальная викторина/телеигра, TVRip/VHSRip] Galfimbul 1836813245017.11 GB 0 0 1503436491

00:14

23-Авг-17

Развлекательные телепередачи и шоу ·· Своя игра (Эфир от 25.06.2017) [2017, Интеллектуальное шоу, HDTV 1080i] Galfimbul 27637028362.57 GB 0 0 1498403815

18:16

25-Июн-17

Развлекательные телепередачи и шоу ·· Своя игра (Эфир от 24.06.2017) [2017, Интеллектуальное шоу, HDTV 1080i] Galfimbul 31872448402.97 GB 0 0 1498311969

16:46

24-Июн-17

Развлекательные телепередачи и шоу ·· Своя игра (Эфир от 18.06.2017) [2017, Интеллектуальное шоу, HDTV 1080i] Galfimbul 33451659683.12 GB 0 0 1497840339

05:45

19-Июн-17

Развлекательные телепередачи и шоу ·· Своя игра (Эфир от 17.06.2017) [2017, Интеллектуальное шоу, HDTV 1080i] Galfimbul 28243762642.63 GB 0 0 1497708858

17:14

17-Июн-17

Развлекательные телепередачи и шоу ·· Своя игра (Эфир от 11.06.2017) [2017, Интеллектуальное шоу, HDTV 1080i] Galfimbul 29276262402.73 GB 0 0 1497188704

16:45

11-Июн-17

Развлекательные телепередачи и шоу ·· Своя игра (Эфир от 10.06.2017) [2017, Интеллектуальное шоу, HDTV 1080i] Galfimbul 33347742683.11 GB 0 0 1497104221

17:17

10-Июн-17

Развлекательные телепередачи и шоу ·· Своя игра (Эфир от 28.01.2017) [2017, Интеллектуальное шоу, HDTV 1080i] Galfimbul 39580931563.69 GB 0 0 1497042311

00:05

10-Июн-17

Развлекательные телепередачи и шоу ·· Своя игра (Эфир от 29.01.2017) [2017, Интеллектуальное шоу, HDTV 1080i] Galfimbul 40783808203.8 GB 0 0 1497042302

00:05

10-Июн-17

Развлекательные телепередачи и шоу ·· Своя игра (Эфир от 04.02.2017) [2017, Интеллектуальное шоу, HDTV 1080i] Galfimbul 42219406283.93 GB 0 0 1497042284

00:04

10-Июн-17

Развлекательные телепередачи и шоу ·· Своя игра (Эфир от 05.02.2017) [2017, Интеллектуальное шоу, HDTV 1080i] Galfimbul 43125978004.02 GB 0 0 1497042274

00:04

10-Июн-17

Развлекательные телепередачи и шоу ·· Своя игра (Эфир от 27.05.2017) [2017, Интеллектуальное шоу, HDTV 1080i] Galfimbul 27402252082.55 GB 0 0 1497042205

00:03

10-Июн-17

Развлекательные телепередачи и шоу ·· Своя игра (Эфир от 28.05.2017) [2017, Интеллектуальное шоу, HDTV 1080i] Galfimbul 27921393402.6 GB 0 0 1497042183

00:03

10-Июн-17

Еще никто не оставлял запись к записи скачать торрент Своя игра . Будь первым!

!Обратная связь