Скачать через торрент Слуга народа 2 Фильм бесплатно в хорошем качестве torrent

Скачивайте на UnionPeer.org фильмы через торрент без регистрации. Новинки кино в хорошем качестве через торрент. На UnionPeer.org можно скачать через торрент фильмы 2014 и 2015 годов. Самые новые фильмы.

Скачать торрент Слуга народа 2 бесплатно через .torrent фильм мультфильм сериал

Если у вас наблюдаются проблемы со скриншотами, переходом по ссылками, скачиванием торрентов - проблемы в блокировщике рекламы AdBlock. #хорошегоДня!


Статистика раздачи
Размер:  747 MB   |    Зарегистрирован:  18 дней   |    .torrent скачан:  52 раза   |   
Раздают:  2  
   
Загрузка...
 
Автор Сообщение

Galfimbul

avatar Galfimbul


Слуга народа 2

Год выхода: 2016
Жанр: Комедия
Режиссер: Алексей Кирющенко
В ролях: Владимир Зеленский, Анна Кошмал, Наталия Сумская, Виктор Сарайкин, Екатерина Кистень, Станислав Боклан, Евгений Кошевой, Александр Пикалов, Юрий Крапов, Елена Кравец

О фильме:
Президент Василий Голобородько у власти уже почти полгода. Экономическая ситуация в стране ухудшилась, цены растут, национальная валюта обесценивается. Кредит народного доверия к Президенту стремительно падает. Для стабилизации ситуации в стране Голобородько необходимо получить финансовую помощь МВФ в размере 15 миллиардов евро, которую могут предоставить, если в Украине будут введены реформы и приняты антикоррупционные законы. Однако Верховная Рада, которой тайно руководят олигархи, блокирует голосование по пакету этих законов.Чтобы реализовать свои планы, Президент отправляется в поездки по Украине. Он побывает в Харькове, Одессе, Запорожье и во Львове. Его ждет большое количество приключений, испытаний и даже преследования «титушек»


Страна: Украина
Студия: Квартал-95
Продолжительность: 01:36:38
Перевод: Не требуется

Файл
Кодек: XviD
Качество: WEB-DLRip Исходник
Видео: 720x320 (2.25:1), 25 fps, XviD build 73 ~942 kbps avg, 0.16 bit/pixel
Звук: 44.100 kHz, MPEG Layer 3, 2 ch, ~128.00 kbps avg
Субтитры: Отсутствуют

Семпл
General
Complete name : D:Изготовление рипаSluga.naroda.2.WEBDLRip by shkiper.avi
Format : AVI
Format/Info : Audio Video Interleave
File size : 747 MiB
Duration : 1 h 36 min
Overall bit rate : 1 081 kb/s
Writing application : VirtualDubMod 1.5.10.3 | www.virtualdub-fr.org || (build 2550/release)
Writing library : VirtualDubMod build 2550/release

Video
ID : 0
Format : MPEG-4 Visual
Format profile : Advanced Simple@L5
Format settings, BVOP : 1
Format settings, QPel : No
Format settings, GMC : No warppoints
Format settings, Matrix : Custom
Codec ID : XVID
Codec ID/Hint : XviD
Duration : 1 h 36 min
Bit rate : 943 kb/s
Width : 720 pixels
Height : 320 pixels
Display aspect ratio : 2.25:1
Frame rate : 25.000 FPS
Color space : YUV
Chroma subsampling : 4:2:0
Bit depth : 8 bits
Scan type : Progressive
Compression mode : Lossy
Bits/(Pixel*Frame) : 0.164
Stream size : 652 MiB (87%)
Writing library : XviD 73

Audio
ID : 1
Format : MPEG Audio
Format version : Version 1
Format profile : Layer 3
Codec ID : 55
Codec ID/Hint : MP3
Duration : 1 h 36 min
Bit rate mode : Constant
Bit rate : 128 kb/s
Channel(s) : 2 channels
Sampling rate : 44.1 kHz
Compression mode : Lossy
Stream size : 88.5 MiB (12%)
Alignment : Split accross interleaves
Interleave, duration : 40 ms (1.00 video frame)
Interleave, preload duratio : 500 ms
Writing library : LAME3.99r
Encoding settings : -m s -V 4 -q 2 -lowpass 17 -b 128
Источник http://arutor.org

Трекер:  [ 03-Сен-2017 16:20 ]

  

Скачать .torrent

Размер .torrent файла 15 KB


Размер: 747 MB
Хэш (hash) релиза: 218d71b4a028717307b9b71caa9e522f70f945e5
Подписка на обновления:

Торренты, похожие на Слуга народа 2 скачать торрент

Форум Название Автор Размер S L Добавлен
Российские фильмы 2016-2017 (Новинки русского кино) ·· Слуга народа 2 (Алексей Кирющенко) [2016, Комедия, WEB-DLRip] Galfimbul 14707712001.37 GB 8 0 1503607826

23:50

24-Авг-17

Российские фильмы 2016-2017 (Новинки русского кино) ·· Слуга народа 2 (Алексей Кирющенко) [2016, Комедия, WEB-DL 1080p] Galfimbul 30491358342.84 GB 5 0 1503605429

23:10

24-Авг-17

Еще никто не оставлял запись к записи скачать торрент Слуга народа 2 . Будь первым!

!Обратная связь